  0
SECTION
  2
HEADER
  9
$ACADVER
  1
AC1015
  9
$ACADMAINTVER
 70
     6
  9
$DWGCODEPAGE
  3
ANSI_1252
  9
$INSBASE
 10
0.0
 20
0.0
 30
0.0
  9
$EXTMIN
 10
-105.0000000000001
 20
0.0
 30
0.0
  9
$EXTMAX
 10
0.0
 20
148.5000000000001
 30
0.0
  9
$LIMMIN
 10
0.0
 20
0.0
  9
$LIMMAX
 10
12.0
 20
9.0
  9
$ORTHOMODE
 70
     0
  9
$REGENMODE
 70
     1
  9
$FILLMODE
 70
     1
  9
$QTEXTMODE
 70
     0
  9
$MIRRTEXT
 70
     1
  9
$LTSCALE
 40
1.0
  9
$ATTMODE
 70
     1
  9
$TEXTSIZE
 40
0.2
  9
$TRACEWID
 40
0.05
  9
$TEXTSTYLE
  7
Standard
  9
$CLAYER
  8
0
  9
$CELTYPE
  6
ByLayer
  9
$CECOLOR
 62
   256
  9
$CELTSCALE
 40
1.0
  9
$DISPSILH
 70
     0
  9
$DIMSCALE
 40
1.0
  9
$DIMASZ
 40
0.18
  9
$DIMEXO
 40
0.0625
  9
$DIMDLI
 40
0.38
  9
$DIMRND
 40
0.0
  9
$DIMDLE
 40
0.0
  9
$DIMEXE
 40
0.18
  9
$DIMTP
 40
0.0
  9
$DIMTM
 40
0.0
  9
$DIMTXT
 40
0.18
  9
$DIMCEN
 40
0.09
  9
$DIMTSZ
 40
0.0
  9
$DIMTOL
 70
     0
  9
$DIMLIM
 70
     0
  9
$DIMTIH
 70
     1
  9
$DIMTOH
 70
     1
  9
$DIMSE1
 70
     0
  9
$DIMSE2
 70
     0
  9
$DIMTAD
 70
     0
  9
$DIMZIN
 70
     0
  9
$DIMBLK
  1

  9
$DIMASO
 70
     1
  9
$DIMSHO
 70
     1
  9
$DIMPOST
  1

  9
$DIMAPOST
  1

  9
$DIMALT
 70
     0
  9
$DIMALTD
 70
     2
  9
$DIMALTF
 40
25.4
  9
$DIMLFAC
 40
1.0
  9
$DIMTOFL
 70
     0
  9
$DIMTVP
 40
0.0
  9
$DIMTIX
 70
     0
  9
$DIMSOXD
 70
     0
  9
$DIMSAH
 70
     0
  9
$DIMBLK1
  1

  9
$DIMBLK2
  1

  9
$DIMSTYLE
  2
Standard
  9
$DIMCLRD
 70
     0
  9
$DIMCLRE
 70
     0
  9
$DIMCLRT
 70
     0
  9
$DIMTFAC
 40
1.0
  9
$DIMGAP
 40
0.09
  9
$DIMJUST
 70
     0
  9
$DIMSD1
 70
     0
  9
$DIMSD2
 70
     0
  9
$DIMTOLJ
 70
     1
  9
$DIMTZIN
 70
     0
  9
$DIMALTZ
 70
     0
  9
$DIMALTTZ
 70
     0
  9
$DIMUPT
 70
     0
  9
$DIMDEC
 70
     4
  9
$DIMTDEC
 70
     4
  9
$DIMALTU
 70
     2
  9
$DIMALTTD
 70
     2
  9
$DIMTXSTY
  7
Standard
  9
$DIMAUNIT
 70
     0
  9
$DIMADEC
 70
     0
  9
$DIMALTRND
 40
0.0
  9
$DIMAZIN
 70
     0
  9
$DIMDSEP
 70
    46
  9
$DIMATFIT
 70
     3
  9
$DIMFRAC
 70
     0
  9
$DIMLDRBLK
  1

  9
$DIMLUNIT
 70
     2
  9
$DIMLWD
 70
    -2
  9
$DIMLWE
 70
    -2
  9
$DIMTMOVE
 70
     0
  9
$LUNITS
 70
     2
  9
$LUPREC
 70
     4
  9
$SKETCHINC
 40
0.1
  9
$FILLETRAD
 40
0.5
  9
$AUNITS
 70
     0
  9
$AUPREC
 70
     0
  9
$MENU
  1
.
  9
$ELEVATION
 40
0.0
  9
$PELEVATION
 40
0.0
  9
$THICKNESS
 40
0.0
  9
$LIMCHECK
 70
     0
  9
$CHAMFERA
 40
0.5
  9
$CHAMFERB
 40
0.5
  9
$CHAMFERC
 40
1.0
  9
$CHAMFERD
 40
0.0
  9
$SKPOLY
 70
     0
  9
$TDCREATE
 40
2456997.433432187
  9
$TDUCREATE
 40
2456997.391765521
  9
$TDUPDATE
 40
2456997.433432361
  9
$TDUUPDATE
 40
2456997.391765695
  9
$TDINDWG
 40
0.0000000116
  9
$TDUSRTIMER
 40
0.0000000116
  9
$USRTIMER
 70
     1
  9
$ANGBASE
 50
0.0
  9
$ANGDIR
 70
     0
  9
$PDMODE
 70
     0
  9
$PDSIZE
 40
0.0
  9
$PLINEWID
 40
0.0
  9
$SPLFRAME
 70
     0
  9
$SPLINETYPE
 70
     6
  9
$SPLINESEGS
 70
     8
  9
$HANDSEED
  5
35E
  9
$SURFTAB1
 70
     6
  9
$SURFTAB2
 70
     6
  9
$SURFTYPE
 70
     6
  9
$SURFU
 70
     6
  9
$SURFV
 70
     6
  9
$UCSBASE
  2

  9
$UCSNAME
  2

  9
$UCSORG
 10
0.0
 20
0.0
 30
0.0
  9
$UCSXDIR
 10
1.0
 20
0.0
 30
0.0
  9
$UCSYDIR
 10
0.0
 20
1.0
 30
0.0
  9
$UCSORTHOREF
  2

  9
$UCSORTHOVIEW
 70
     0
  9
$UCSORGTOP
 10
0.0
 20
0.0
 30
0.0
  9
$UCSORGBOTTOM
 10
0.0
 20
0.0
 30
0.0
  9
$UCSORGLEFT
 10
0.0
 20
0.0
 30
0.0
  9
$UCSORGRIGHT
 10
0.0
 20
0.0
 30
0.0
  9
$UCSORGFRONT
 10
0.0
 20
0.0
 30
0.0
  9
$UCSORGBACK
 10
0.0
 20
0.0
 30
0.0
  9
$PUCSBASE
  2

  9
$PUCSNAME
  2

  9
$PUCSORG
 10
0.0
 20
0.0
 30
0.0
  9
$PUCSXDIR
 10
1.0
 20
0.0
 30
0.0
  9
$PUCSYDIR
 10
0.0
 20
1.0
 30
0.0
  9
$PUCSORTHOREF
  2

  9
$PUCSORTHOVIEW
 70
     0
  9
$PUCSORGTOP
 10
0.0
 20
0.0
 30
0.0
  9
$PUCSORGBOTTOM
 10
0.0
 20
0.0
 30
0.0
  9
$PUCSORGLEFT
 10
0.0
 20
0.0
 30
0.0
  9
$PUCSORGRIGHT
 10
0.0
 20
0.0
 30
0.0
  9
$PUCSORGFRONT
 10
0.0
 20
0.0
 30
0.0
  9
$PUCSORGBACK
 10
0.0
 20
0.0
 30
0.0
  9
$USERI1
 70
     0
  9
$USERI2
 70
     0
  9
$USERI3
 70
     0
  9
$USERI4
 70
     0
  9
$USERI5
 70
     0
  9
$USERR1
 40
18.1
  9
$USERR2
 40
0.0
  9
$USERR3
 40
0.0
  9
$USERR4
 40
0.0
  9
$USERR5
 40
0.0
  9
$WORLDVIEW
 70
     1
  9
$SHADEDGE
 70
     3
  9
$SHADEDIF
 70
    70
  9
$TILEMODE
 70
     1
  9
$MAXACTVP
 70
    64
  9
$PINSBASE
 10
0.0
 20
0.0
 30
0.0
  9
$PLIMCHECK
 70
     0
  9
$PEXTMIN
 10
1.00000000000000E+20
 20
1.00000000000000E+20
 30
1.00000000000000E+20
  9
$PEXTMAX
 10
-1.00000000000000E+20
 20
-1.00000000000000E+20
 30
-1.00000000000000E+20
  9
$PLIMMIN
 10
0.0
 20
0.0
  9
$PLIMMAX
 10
12.0
 20
9.0
  9
$UNITMODE
 70
     0
  9
$VISRETAIN
 70
     1
  9
$PLINEGEN
 70
     0
  9
$PSLTSCALE
 70
     1
  9
$TREEDEPTH
 70
  3020
  9
$CMLSTYLE
  2
Standard
  9
$CMLJUST
 70
     0
  9
$CMLSCALE
 40
1.0
  9
$PROXYGRAPHICS
 70
     1
  9
$MEASUREMENT
 70
     1
  9
$CELWEIGHT
370
    -1
  9
$ENDCAPS
280
     0
  9
$JOINSTYLE
280
     0
  9
$LWDISPLAY
290
     0
  9
$INSUNITS
 70
     4
  9
$HYPERLINKBASE
  1

  9
$STYLESHEET
  1

  9
$XEDIT
290
     1
  9
$CEPSNTYPE
380
     0
  9
$PSTYLEMODE
290
     1
  9
$FINGERPRINTGUID
  2
{73B19E75-9DF7-442B-A237-4F73FB5A2766}
  9
$VERSIONGUID
  2
{FAEB1C32-E019-11D5-929B-00C0DF256EC4}
  9
$EXTNAMES
290
     1
  9
$PSVPSCALE
 40
0.0
  9
$OLESTARTUP
290
     0
  0
ENDSEC
  0
SECTION
  2
CLASSES
  0
CLASS
  1
ACDBDICTIONARYWDFLT
  2
AcDbDictionaryWithDefault
  3
ObjectDBX Classes
 90
        0
280
     0
281
     0
  0
CLASS
  1
VISUALSTYLE
  2
AcDbVisualStyle
  3
ObjectDBX Classes
 90
     4095
280
     0
281
     0
  0
CLASS
  1
MATERIAL
  2
AcDbMaterial
  3
ObjectDBX Classes
 90
     1153
280
     0
281
     0
  0
CLASS
  1
DICTIONARYVAR
  2
AcDbDictionaryVar
  3
ObjectDBX Classes
 90
        0
280
     0
281
     0
  0
CLASS
  1
ACDBPLACEHOLDER
  2
AcDbPlaceHolder
  3
ObjectDBX Classes
 90
        0
280
     0
281
     0
  0
CLASS
  1
LAYOUT
  2
AcDbLayout
  3
ObjectDBX Classes
 90
        0
280
     0
281
     0
  0
ENDSEC
  0
SECTION
  2
TABLES
  0
TABLE
  2
VPORT
  5
8
330
0
100
AcDbSymbolTable
 70
     1
  0
VPORT
  5
29
330
8
100
AcDbSymbolTableRecord
100
AcDbViewportTableRecord
  2
*Active
 70
     0
 10
0.0
 20
0.0
 11
1.0
 21
1.0
 12
-52.50000000000005
 22
74.25000000000006
 13
0.0
 23
0.0
 14
0.5
 24
0.5
 15
0.5
 25
0.5
 16
0.0
 26
0.0
 36
1.0
 17
0.0
 27
0.0
 37
0.0
 40
163.3500000000001
 41
1.60267857142857
 42
50.0
 43
0.0
 44
0.0
 50
0.0
 51
0.0
 71
     0
 72
   100
 73
     1
 74
     3
 75
     0
 76
     0
 77
     0
 78
     0
281
     0
 65
     1
110
0.0
120
0.0
130
0.0
111
1.0
121
0.0
131
0.0
112
0.0
122
1.0
132
0.0
 79
     0
146
0.0
  0
ENDTAB
  0
TABLE
  2
LTYPE
  5
5
330
0
100
AcDbSymbolTable
 70
     8
  0
LTYPE
  5
14
330
5
100
AcDbSymbolTableRecord
100
AcDbLinetypeTableRecord
  2
ByBlock
 70
     0
  3

 72
    65
 73
     0
 40
0.0
  0
LTYPE
  5
15
330
5
100
AcDbSymbolTableRecord
100
AcDbLinetypeTableRecord
  2
ByLayer
 70
     0
  3

 72
    65
 73
     0
 40
0.0
  0
LTYPE
  5
16
330
5
100
AcDbSymbolTableRecord
100
AcDbLinetypeTableRecord
  2
Continuous
 70
     0
  3
Solid line
 72
    65
 73
     0
 40
0.0
  0
LTYPE
  5
3F
330
5
100
AcDbSymbolTableRecord
100
AcDbLinetypeTableRecord
  2
DASHED
 70
     0
  3
Dashed
 72
    65
 73
     2
 40
15.0
 49
7.0
 74
     0
 49
-8.0
 74
     0
  0
LTYPE
  5
40
330
5
100
AcDbSymbolTableRecord
100
AcDbLinetypeTableRecord
  2
DOTTED
 70
     0
  3
Dotted
 72
    65
 73
     2
 40
1.0
 49
0.0
 74
     0
 49
-1.0
 74
     0
  0
LTYPE
  5
41
330
5
100
AcDbSymbolTableRecord
100
AcDbLinetypeTableRecord
  2
DOT_CENTER
 70
     0
  3
Dot_Center
 72
    65
 73
     4
 40
14.0
 49
12.0
 74
     0
 49
-1.0
 74
     0
 49
0.0
 74
     0
 49
-1.0
 74
     0
  0
LTYPE
  5
42
330
5
100
AcDbSymbolTableRecord
100
AcDbLinetypeTableRecord
  2
LONG_DASHED
 70
     0
  3
Long_Dashed
 72
    65
 73
     2
 40
15.0
 49
10.0
 74
     0
 49
-5.0
 74
     0
  0
LTYPE
  5
43
330
5
100
AcDbSymbolTableRecord
100
AcDbLinetypeTableRecord
  2
DASH_CENTER
 70
     0
  3
Dash_Center
 72
    65
 73
     4
 40
14.0
 49
11.0
 74
     0
 49
-1.0
 74
     0
 49
1.0
 74
     0
 49
-1.0
 74
     0
  0
LTYPE
  5
44
330
5
100
AcDbSymbolTableRecord
100
AcDbLinetypeTableRecord
  2
PHANTOM
 70
     0
  3
Phantom
 72
    65
 73
     6
 40
13.0
 49
10.0
 74
     0
 49
-1.0
 74
     0
 49
0.0
 74
     0
 49
-1.0
 74
     0
 49
0.0
 74
     0
 49
-1.0
 74
     0
  0
LTYPE
  5
45
330
5
100
AcDbSymbolTableRecord
100
AcDbLinetypeTableRecord
  2
CENTER_DASH_DASH
 70
     0
  3
Center_Dash_Dash
 72
    65
 73
     6
 40
14.0
 49
9.0
 74
     0
 49
-1.0
 74
     0
 49
1.0
 74
     0
 49
-1.0
 74
     0
 49
1.0
 74
     0
 49
-1.0
 74
     0
  0
ENDTAB
  0
TABLE
  2
LAYER
  5
2
330
0
100
AcDbSymbolTable
 70
     2
  0
LAYER
  5
10
330
2
100
AcDbSymbolTableRecord
100
AcDbLayerTableRecord
  2
0
 70
     0
 62
     7
  6
Continuous
370
    -3
390
F
  0
LAYER
  5
46
330
2
100
AcDbSymbolTableRecord
100
AcDbLayerTableRecord
  2
1
 70
     0
 62
     7
  6
Continuous
370
    -3
390
F
  0
ENDTAB
  0
TABLE
  2
STYLE
  5
3
330
0
100
AcDbSymbolTable
 70
     4
  0
STYLE
  5
11
330
3
100
AcDbSymbolTableRecord
100
AcDbTextStyleTableRecord
  2
Standard
 70
     0
 40
0.0
 41
1.0
 50
0.0
 71
     0
 42
0.2
  3
txt
  4

  0
STYLE
  5
2E5
330
3
100
AcDbSymbolTableRecord
100
AcDbTextStyleTableRecord
  2
CONVERTER_11
 70
     0
 40
0.0
 41
0.95
 50
0.0
 71
     0
 42
0.2
  3
simplex.shx
  4

  0
STYLE
  5
2E8
330
3
100
AcDbSymbolTableRecord
100
AcDbTextStyleTableRecord
  2
CONVERTER_12
 70
     0
 40
0.0
 41
0.76
 50
0.0
 71
     0
 42
0.2
  3
simplex.shx
  4

  0
STYLE
  5
301
330
3
100
AcDbSymbolTableRecord
100
AcDbTextStyleTableRecord
  2
CONVERTER_13
 70
     0
 40
0.0
 41
1.2
 50
0.0
 71
     0
 42
0.2
  3
ARIAL.TTF
  4

  0
ENDTAB
  0
TABLE
  2
VIEW
  5
6
330
0
100
AcDbSymbolTable
 70
     0
  0
ENDTAB
  0
TABLE
  2
UCS
  5
7
330
0
100
AcDbSymbolTable
 70
     0
  0
ENDTAB
  0
TABLE
  2
APPID
  5
9
330
0
100
AcDbSymbolTable
 70
     1
  0
APPID
  5
12
330
9
100
AcDbSymbolTableRecord
100
AcDbRegAppTableRecord
  2
ACAD
 70
     0
  0
ENDTAB
  0
TABLE
  2
DIMSTYLE
  5
A
330
0
100
AcDbSymbolTable
 70
     4
100
AcDbDimStyleTable
  0
DIMSTYLE
105
27
330
A
100
AcDbSymbolTableRecord
100
AcDbDimStyleTableRecord
  2
Standard
 70
     0
178
     0
340
11
  0
DIMSTYLE
105
313
102
{ACAD_REACTORS
330
314
102
}
330
A
100
AcDbSymbolTableRecord
100
AcDbDimStyleTableRecord
  2
ME10_DIM_10
 70
     0
 41
1.5
 42
0.25
 44
0.5
 73
     0
 74
     0
 77
     1
 78
     8
140
1.5
147
1.0
172
     1
173
     1
174
     1
175
     1
176
     2
177
     2
271
     2
178
     4
271
     2
340
2E5
  0
DIMSTYLE
105
31E
102
{ACAD_REACTORS
330
31F
102
}
330
A
100
AcDbSymbolTableRecord
100
AcDbDimStyleTableRecord
  2
ME10_DIM_11
 70
     0
 41
1.5
 42
0.25
 44
0.5
 73
     0
 74
     0
 77
     1
 78
     8
140
1.5
147
1.0
172
     1
173
     1
174
     1
175
     1
176
     2
177
     2
271
     2
178
     4
271
     2
340
2E5
  0
DIMSTYLE
105
329
102
{ACAD_REACTORS
330
32A
102
}
330
A
100
AcDbSymbolTableRecord
100
AcDbDimStyleTableRecord
  2
ME10_DIM_12
 70
     0
 41
1.5
 42
0.25
 44
0.5
 73
     0
 74
     0
 77
     1
 78
     8
140
1.5
147
1.0
172
     1
173
     1
174
     1
175
     1
176
     2
177
     2
271
     2
178
     4
271
     2
340
2E5
  0
ENDTAB
  0
TABLE
  2
BLOCK_RECORD
  5
1
330
0
100
AcDbSymbolTable
 70
     4
  0
BLOCK_RECORD
  5
1F
330
1
100
AcDbSymbolTableRecord
100
AcDbBlockTableRecord
  2
*Model_Space
340
22
  0
BLOCK_RECORD
  5
1B
330
1
100
AcDbSymbolTableRecord
100
AcDbBlockTableRecord
  2
*Paper_Space
340
1E
  0
BLOCK_RECORD
  5
23
330
1
100
AcDbSymbolTableRecord
100
AcDbBlockTableRecord
  2
*Paper_Space0
340
26
  0
BLOCK_RECORD
  5
30A
330
1
100
AcDbSymbolTableRecord
100
AcDbBlockTableRecord
  2
*D1
340
0
  0
BLOCK_RECORD
  5
315
330
1
100
AcDbSymbolTableRecord
100
AcDbBlockTableRecord
  2
*D2
340
0
  0
BLOCK_RECORD
  5
320
330
1
100
AcDbSymbolTableRecord
100
AcDbBlockTableRecord
  2
*D3
340
0
  0
ENDTAB
  0
ENDSEC
  0
SECTION
  2
BLOCKS
  0
BLOCK
  5
20
330
1F
100
AcDbEntity
  8
0
100
AcDbBlockBegin
  2
*Model_Space
 70
     0
 10
0.0
 20
0.0
 30
0.0
  3
*Model_Space
  1

  0
ENDBLK
  5
21
330
1F
100
AcDbEntity
  8
0
100
AcDbBlockEnd
  0
BLOCK
  5
1C
330
1B
100
AcDbEntity
 67
     1
  8
0
100
AcDbBlockBegin
  2
*Paper_Space
 70
     0
 10
0.0
 20
0.0
 30
0.0
  3
*Paper_Space
  1

  0
ENDBLK
  5
1D
330
1B
100
AcDbEntity
 67
     1
  8
0
100
AcDbBlockEnd
  0
BLOCK
  5
24
330
23
100
AcDbEntity
  8
0
100
AcDbBlockBegin
  2
*Paper_Space0
 70
     0
 10
0.0
 20
0.0
 30
0.0
  3
*Paper_Space0
  1

  0
ENDBLK
  5
25
330
23
100
AcDbEntity
  8
0
100
AcDbBlockEnd
  0
BLOCK
  5
311
330
30A
100
AcDbEntity
  8
0
100
AcDbBlockBegin
  2
*D1
 70
     1
 10
0.0
 20
0.0
 30
0.0
  3
*D1
  1

  0
LINE
  5
30B
330
30A
100
AcDbEntity
  8
1
  6
Continuous
 62
     2
100
AcDbLine
 10
-83.62064837331069
 20
102.6929400432739
 30
0.0
 11
-83.62064837331069
 21
61.89294004327391
 31
0.0
  0
LINE
  5
30C
330
30A
100
AcDbEntity
  8
1
  6
Continuous
 62
     2
100
AcDbLine
 10
-74.7827095258527
 20
61.89294004327391
 30
0.0
 11
-84.12064837331069
 21
61.89294004327391
 31
0.0
  0
LINE
  5
30D
330
30A
100
AcDbEntity
  8
1
  6
Continuous
 62
     2
100
AcDbLine
 10
-66.78270952585268
 20
102.6929400432739
 30
0.0
 11
-84.12064837331069
 21
102.6929400432739
 31
0.0
  0
SOLID
  5
30E
330
30A
100
AcDbEntity
  8
1
 62
     2
100
AcDbTrace
 10
-83.42316962692959
 20
101.1929400432739
 30
0.0
 11
-83.81812711969178
 21
101.1929400432739
 31
0.0
 12
-83.62064837331069
 22
102.6929400432739
 32
0.0
 13
-83.62064837331069
 23
102.6929400432739
 33
0.0
  0
SOLID
  5
30F
330
30A
100
AcDbEntity
  8
1
 62
     2
100
AcDbTrace
 10
-83.81812711969178
 20
63.39294004327391
 30
0.0
 11
-83.42316962692959
 21
63.39294004327391
 31
0.0
 12
-83.62064837331069
 22
61.89294004327391
 32
0.0
 13
-83.62064837331069
 23
61.89294004327391
 33
0.0
  0
MTEXT
  5
310
330
30A
100
AcDbEntity
  8
1
 62
     4
100
AcDbMText
 10
-84.77064837331069
 20
80.23044004327392
 30
0.0
 40
1.5
 41
0.0
 71
     7
 72
     1
  1
40,8
  7
CONVERTER_11
 11
0.0
 21
1.0
 31
0.0
 73
     1
 44
0.60024009603842
  0
ENDBLK
  5
312
330
30A
100
AcDbEntity
  8
0
100
AcDbBlockEnd
  0
BLOCK
  5
31C
330
315
100
AcDbEntity
  8
0
100
AcDbBlockBegin
  2
*D2
 70
     1
 10
0.0
 20
0.0
 30
0.0
  3
*D2
  1

  0
LINE
  5
316
330
315
100
AcDbEntity
  8
1
  6
Continuous
 62
     2
100
AcDbLine
 10
-74.5327095258527
 20
55.7233076303983
 30
0.0
 11
-53.53270952585267
 21
55.7233076303983
 31
0.0
  0
LINE
  5
317
330
315
100
AcDbEntity
  8
1
  6
Continuous
 62
     2
100
AcDbLine
 10
-53.53270952585267
 20
61.64294004327391
 30
0.0
 11
-53.53270952585267
 21
55.2233076303983
 31
0.0
  0
LINE
  5
318
330
315
100
AcDbEntity
  8
1
  6
Continuous
 62
     2
100
AcDbLine
 10
-74.5327095258527
 20
61.64294004327391
 30
0.0
 11
-74.5327095258527
 21
55.2233076303983
 31
0.0
  0
SOLID
  5
319
330
315
100
AcDbEntity
  8
1
 62
     2
100
AcDbTrace
 10
-73.0327095258527
 20
55.9207863767794
 30
0.0
 11
-73.0327095258527
 21
55.52582888401721
 31
0.0
 12
-74.5327095258527
 22
55.7233076303983
 32
0.0
 13
-74.5327095258527
 23
55.7233076303983
 33
0.0
  0
SOLID
  5
31A
330
315
100
AcDbEntity
  8
1
 62
     2
100
AcDbTrace
 10
-55.03270952585267
 20
55.52582888401721
 30
0.0
 11
-55.03270952585267
 21
55.9207863767794
 31
0.0
 12
-53.53270952585267
 22
55.7233076303983
 32
0.0
 13
-53.53270952585267
 23
55.7233076303983
 33
0.0
  0
MTEXT
  5
31B
330
315
100
AcDbEntity
  8
1
 62
     4
100
AcDbMText
 10
-64.93270952585269
 20
56.7233076303983
 30
0.0
 40
1.5
 41
0.0
 71
     7
 72
     1
  1
21
  7
CONVERTER_11
 11
0.9999999999970619
 21
2.424068405545306E-6
 31
0.0
 73
     1
 44
0.60024009603842
  0
ENDBLK
  5
31D
330
315
100
AcDbEntity
  8
0
100
AcDbBlockEnd
  0
BLOCK
  5
327
330
320
100
AcDbEntity
  8
0
100
AcDbBlockBegin
  2
*D3
 70
     1
 10
0.0
 20
0.0
 30
0.0
  3
*D3
  1

  0
LINE
  5
321
330
320
100
AcDbEntity
  8
1
  6
Continuous
 62
     2
100
AcDbLine
 10
-36.53270952585267
 20
55.7233076303983
 30
0.0
 11
-15.53270952585267
 21
55.7233076303983
 31
0.0
  0
LINE
  5
322
330
320
100
AcDbEntity
  8
1
  6
Continuous
 62
     2
100
AcDbLine
 10
-15.53270952585267
 20
61.64294004327391
 30
0.0
 11
-15.53270952585267
 21
55.2233076303983
 31
0.0
  0
LINE
  5
323
330
320
100
AcDbEntity
  8
1
  6
Continuous
 62
     2
100
AcDbLine
 10
-36.53270952585267
 20
61.64294004327391
 30
0.0
 11
-36.53270952585267
 21
55.2233076303983
 31
0.0
  0
SOLID
  5
324
330
320
100
AcDbEntity
  8
1
 62
     2
100
AcDbTrace
 10
-35.03270952585267
 20
55.9207863767794
 30
0.0
 11
-35.03270952585267
 21
55.52582888401721
 31
0.0
 12
-36.53270952585267
 22
55.7233076303983
 32
0.0
 13
-36.53270952585267
 23
55.7233076303983
 33
0.0
  0
SOLID
  5
325
330
320
100
AcDbEntity
  8
1
 62
     2
100
AcDbTrace
 10
-17.03270952585267
 20
55.52582888401721
 30
0.0
 11
-17.03270952585267
 21
55.9207863767794
 31
0.0
 12
-15.53270952585267
 22
55.7233076303983
 32
0.0
 13
-15.53270952585267
 23
55.7233076303983
 33
0.0
  0
MTEXT
  5
326
330
320
100
AcDbEntity
  8
1
 62
     4
100
AcDbMText
 10
-26.93270952585267
 20
56.7233076303983
 30
0.0
 40
1.5
 41
0.0
 71
     7
 72
     1
  1
21
  7
CONVERTER_11
 11
0.9999999999970619
 21
2.424068405545306E-6
 31
0.0
 73
     1
 44
0.60024009603842
  0
ENDBLK
  5
328
330
320
100
AcDbEntity
  8
0
100
AcDbBlockEnd
  0
ENDSEC
  0
SECTION
  2
ENTITIES
  0
LINE
  5
47
102
{ACAD_REACTORS
330
32B
102
}
330
1F
100
AcDbEntity
  8
1
  6
Continuous
 62
     7
100
AcDbLine
 10
-66.23270952585241
 20
26.8729400432739
 30
0.0
 11
-66.8327095258527
 21
26.27294004327364
 31
0.0
  0
LINE
  5
48
330
1F
100
AcDbEntity
  8
1
  6
Continuous
 62
     7
100
AcDbLine
 10
-61.83270952585296
 20
26.8729400432739
 30
0.0
 11
-62.44484156020867
 21
27.48507207762963
 31
0.0
  0
LINE
  5
49
330
1F
100
AcDbEntity
  8
1
  6
Continuous
 62
     7
100
AcDbLine
 10
-65.40770952585281
 20
26.27294004327364
 30
0.0
 11
-64.78270952585281
 21
27.57294004327363
 31
0.0
  0
LINE
  5
4A
330
1F
100
AcDbEntity
  8
1
  6
Continuous
 62
     7
100
AcDbLine
 10
-62.50576344219009
 20
27.57294004327363
 30
0.0
 11
-65.55965560951536
 21
27.57294004327363
 31
0.0
  0
LINE
  5
4B
330
1F
100
AcDbEntity
  8
1
  6
Continuous
 62
     7
100
AcDbLine
 10
-65.62057749149666
 20
27.48507207762963
 30
0.0
 11
-66.23270952585241
 21
26.8729400432739
 31
0.0
  0
LINE
  5
4C
330
1F
100
AcDbEntity
  8
1
  6
Continuous
 62
     7
100
AcDbLine
 10
-61.23270952585268
 20
26.27294004327364
 30
0.0
 11
-66.8327095258527
 21
26.27294004327364
 31
0.0
  0
LINE
  5
4D
102
{ACAD_REACTORS
330
32B
102
}
330
1F
100
AcDbEntity
  8
1
  6
Continuous
 62
     7
100
AcDbLine
 10
-66.8327095258527
 20
26.27294004327364
 30
0.0
 11
-66.8327095258527
 21
25.92294004327362
 31
0.0
  0
LINE
  5
4E
330
1F
100
AcDbEntity
  8
1
  6
Continuous
 62
     7
100
AcDbLine
 10
-63.55517703726873
 20
26.27294004327364
 30
0.0
 11
-63.77223725935234
 21
27.57294004327363
 31
0.0
  0
LINE
  5
4F
102
{ACAD_REACTORS
330
32B
102
}
330
1F
100
AcDbEntity
  8
1
  6
Continuous
 62
     7
100
AcDbLine
 10
-61.23270952585268
 20
25.92294004327362
 30
0.0
 11
-61.23270952585268
 21
26.27294004327364
 31
0.0
  0
LINE
  5
50
330
1F
100
AcDbEntity
  8
1
  6
Continuous
 62
     7
100
AcDbLine
 10
-65.5327095258527
 20
27.69720411198562
 30
0.0
 11
-65.5327095258527
 21
28.67294004327393
 31
0.0
  0
LINE
  5
51
330
1F
100
AcDbEntity
  8
1
  6
Continuous
 62
     7
100
AcDbLine
 10
-62.5327095258527
 20
27.69720411198562
 30
0.0
 11
-62.5327095258527
 21
28.67294004327393
 31
0.0
  0
LINE
  5
52
330
1F
100
AcDbEntity
  8
1
  6
Continuous
 62
     2
100
AcDbLine
 10
-65.2827095258527
 20
28.04720411198564
 30
0.0
 11
-62.7827095258527
 21
28.04720411198564
 31
0.0
  0
LINE
  5
53
330
1F
100
AcDbEntity
  8
1
  6
Continuous
 62
     2
100
AcDbLine
 10
-65.2827095258527
 20
28.04720411198564
 30
0.0
 11
-65.2827095258527
 21
28.67294004327393
 31
0.0
  0
LINE
  5
54
330
1F
100
AcDbEntity
  8
1
  6
Continuous
 62
     2
100
AcDbLine
 10
-62.7827095258527
 20
28.04720411198564
 30
0.0
 11
-62.7827095258527
 21
28.67294004327393
 31
0.0
  0
LINE
  5
55
102
{ACAD_REACTORS
330
32B
102
}
330
1F
100
AcDbEntity
  8
1
  6
Continuous
 62
     7
100
AcDbLine
 10
-61.23270952585268
 20
26.27294004327364
 30
0.0
 11
-61.83270952585296
 21
26.8729400432739
 31
0.0
  0
LINE
  5
56
330
1F
100
AcDbEntity
  8
1
  6
Continuous
 62
     2
100
AcDbLine
 10
-62.7827095258527
 20
28.04720411198564
 30
0.0
 11
-62.5327095258527
 21
27.79720411198564
 31
0.0
  0
LINE
  5
57
330
1F
100
AcDbEntity
  8
1
  6
Continuous
 62
     7
100
AcDbLine
 10
-61.92608730727552
 20
26.27294004327364
 30
0.0
 11
-62.8836428611743
 21
27.57294004327363
 31
0.0
  0
LINE
  5
58
330
1F
100
AcDbEntity
  8
1
  6
Continuous
 62
     7
100
AcDbLine
 10
-62.65770952585284
 20
26.27294004327364
 30
0.0
 11
-63.28270952585284
 21
27.57294004327363
 31
0.0
  0
LINE
  5
59
330
1F
100
AcDbEntity
  8
1
  6
Continuous
 62
     7
100
AcDbLine
 10
-64.51024201443688
 20
26.27294004327364
 30
0.0
 11
-64.29318179235317
 21
27.57294004327363
 31
0.0
  0
LINE
  5
5A
330
1F
100
AcDbEntity
  8
1
  6
Continuous
 62
     7
100
AcDbLine
 10
-66.13933174442987
 20
26.27294004327364
 30
0.0
 11
-65.18177619053121
 21
27.57294004327363
 31
0.0
  0
LINE
  5
5B
330
1F
100
AcDbEntity
  8
1
  6
Continuous
 62
     7
100
AcDbLine
 10
-66.616864233014
 20
26.27294004327364
 30
0.0
 11
-65.44224845703151
 21
27.57294004327363
 31
0.0
  0
LINE
  5
5C
330
1F
100
AcDbEntity
  8
1
  6
Continuous
 62
     7
100
AcDbLine
 10
-61.44855481869145
 20
26.27294004327363
 30
0.0
 11
-62.62317059467391
 21
27.57294004327363
 31
0.0
  0
LINE
  5
5D
330
1F
100
AcDbEntity
  8
1
  6
Continuous
 62
     2
100
AcDbLine
 10
-65.5327095258527
 20
27.79720411198564
 30
0.0
 11
-65.2827095258527
 21
28.04720411198564
 31
0.0
  0
LINE
  5
5E
330
1F
100
AcDbEntity
  8
1
  6
Continuous
 62
     7
100
AcDbLine
 10
-61.82600351262103
 20
25.62590609564833
 30
0.0
 11
-61.82600351262103
 21
25.92294004327362
 31
0.0
  0
LINE
  5
5F
330
1F
100
AcDbEntity
  8
1
  6
Continuous
 62
     7
100
AcDbLine
 10
-61.82600351262103
 20
25.92294004327362
 30
0.0
 11
-62.39168893757029
 21
25.92294004327362
 31
0.0
  0
LINE
  5
60
330
1F
100
AcDbEntity
  8
1
  6
Continuous
 62
     7
100
AcDbLine
 10
-62.39168893757029
 20
25.92294004327362
 30
0.0
 11
-62.39168893757029
 21
25.41870147615622
 31
0.0
  0
LINE
  5
61
330
1F
100
AcDbEntity
  8
1
  6
Continuous
 62
     7
100
AcDbLine
 10
-94.5
 20
12.5
 30
0.0
 11
-2.5
 21
12.5
 31
0.0
  0
LINE
  5
62
330
1F
100
AcDbEntity
  8
1
  6
Continuous
 62
     7
100
AcDbLine
 10
-91.0
 20
10.0
 30
0.0
 11
-91.0
 21
12.5
 31
0.0
  0
LINE
  5
63
330
1F
100
AcDbEntity
  8
1
  6
Continuous
 62
     7
100
AcDbLine
 10
-82.0
 20
10.0
 30
0.0
 11
-82.0
 21
12.5
 31
0.0
  0
LINE
  5
64
330
1F
100
AcDbEntity
  8
1
  6
Continuous
 62
     7
100
AcDbLine
 10
-91.0
 20
12.5
 30
0.0
 11
-91.0
 21
15.0
 31
0.0
  0
LINE
  5
65
330
1F
100
AcDbEntity
  8
1
  6
Continuous
 62
     7
100
AcDbLine
 10
-82.0
 20
12.5
 30
0.0
 11
-82.0
 21
15.0
 31
0.0
  0
LINE
  5
66
330
1F
100
AcDbEntity
  8
1
  6
Continuous
 62
     7
100
AcDbLine
 10
-94.5
 20
17.5
 30
0.0
 11
-2.5
 21
17.5
 31
0.0
  0
LINE
  5
67
330
1F
100
AcDbEntity
  8
1
  6
Continuous
 62
     7
100
AcDbLine
 10
-91.0
 20
15.0
 30
0.0
 11
-91.0
 21
17.5
 31
0.0
  0
LINE
  5
68
330
1F
100
AcDbEntity
  8
1
  6
Continuous
 62
     7
100
AcDbLine
 10
-82.0
 20
15.0
 30
0.0
 11
-82.0
 21
17.5
 31
0.0
  0
LINE
  5
69
330
1F
100
AcDbEntity
  8
1
  6
Continuous
 62
     7
100
AcDbLine
 10
-94.5
 20
20.0
 30
0.0
 11
-2.5
 21
20.0
 31
0.0
  0
LINE
  5
6A
330
1F
100
AcDbEntity
  8
1
  6
Continuous
 62
     7
100
AcDbLine
 10
-91.0
 20
17.5
 30
0.0
 11
-91.0
 21
20.0
 31
0.0
  0
LINE
  5
6B
330
1F
100
AcDbEntity
  8
1
  6
Continuous
 62
     7
100
AcDbLine
 10
-82.0
 20
17.5
 30
0.0
 11
-82.0
 21
20.0
 31
0.0
  0
LINE
  5
6C
330
1F
100
AcDbEntity
  8
1
  6
Continuous
 62
     7
100
AcDbLine
 10
-62.42811508140739
 20
63.82288707942129
 30
0.0
 11
-61.00838174807534
 21
63.82288707942129
 31
0.0
  0
LINE
  5
6D
330
1F
100
AcDbEntity
  8
1
  6
Continuous
 62
     7
100
AcDbLine
 10
-63.12319285918655
 20
63.173979491345
 30
0.0
 11
-63.12319285918655
 21
64.21039436589655
 31
0.0
  0
LINE
  5
6E
330
1F
100
AcDbEntity
  8
1
  6
Continuous
 62
     7
100
AcDbLine
 10
-64.0327095258527
 20
63.173979491345
 30
0.0
 11
-64.0327095258527
 21
64.46800726912272
 31
0.0
  0
LINE
  5
6F
330
1F
100
AcDbEntity
  8
1
  6
Continuous
 62
     7
100
AcDbLine
 10
-62.16930952585258
 20
63.173979491345
 30
0.0
 11
-61.26718730363017
 21
63.173979491345
 31
0.0
  0
LINE
  5
70
330
1F
100
AcDbEntity
  8
1
  6
Continuous
 62
     7
100
AcDbLine
 10
-61.00838174807534
 20
63.60285726912257
 30
0.0
 11
-61.00838174807534
 21
63.43278504690162
 31
0.0
  0
LINE
  5
71
330
1F
100
AcDbEntity
  8
1
  6
Continuous
 62
     7
100
AcDbLine
 10
-61.00838174807534
 20
64.2092017135679
 30
0.0
 11
-61.00838174807534
 21
63.82288707942129
 31
0.0
  0
LINE
  5
72
330
1F
100
AcDbEntity
  8
1
  6
Continuous
 62
     7
100
AcDbLine
 10
-62.42811508140739
 20
64.2092017135679
 30
0.0
 11
-62.42811508140739
 21
63.43278504690162
 31
0.0
  0
LINE
  5
73
330
1F
100
AcDbEntity
  8
1
  6
Continuous
 62
     7
100
AcDbLine
 10
-62.16930952585258
 20
64.46800726912272
 30
0.0
 11
-61.26718730363017
 21
64.46800726912272
 31
0.0
  0
LINE
  5
74
330
1F
100
AcDbEntity
  8
1
  6
Continuous
 62
     7
100
AcDbLine
 10
-64.94222619251883
 20
64.46800726912272
 30
0.0
 11
-64.94222619251883
 21
63.173979491345
 31
0.0
  0
LINE
  5
75
330
1F
100
AcDbEntity
  8
1
  6
Continuous
 62
     7
100
AcDbLine
 10
-64.94222619251883
 20
64.46800726912272
 30
0.0
 11
-63.38080576241212
 21
64.46800726912272
 31
0.0
  0
LINE
  5
76
330
1F
100
AcDbEntity
  8
1
  6
Continuous
 62
     7
100
AcDbLine
 10
-65.6373039702974
 20
64.98561838023417
 30
0.0
 11
-65.6373039702974
 21
63.173979491345
 31
0.0
  0
LINE
  5
77
330
1F
100
AcDbEntity
  8
1
  6
Continuous
 62
     7
100
AcDbLine
 10
-66.33238174807533
 20
64.98561838023417
 30
0.0
 11
-66.33238174807533
 21
64.63345975491262
 31
0.0
  0
LINE
  5
78
330
1F
100
AcDbEntity
  8
1
  6
Continuous
 62
     7
100
AcDbLine
 10
-66.33238174807533
 20
64.46800726912272
 30
0.0
 11
-66.33238174807533
 21
63.173979491345
 31
0.0
  0
LINE
  5
79
330
1F
100
AcDbEntity
  8
1
  6
Continuous
 62
     7
100
AcDbLine
 10
-94.5
 20
146.0000000000001
 30
0.0
 11
-94.5
 21
2.49999999999994
 31
0.0
  0
LINE
  5
7A
330
1F
100
AcDbEntity
  8
1
  6
Continuous
 62
     7
100
AcDbLine
 10
-2.5
 20
146.0000000000001
 30
0.0
 11
-94.5
 21
146.0000000000001
 31
0.0
  0
LINE
  5
7B
330
1F
100
AcDbEntity
  8
1
  6
Continuous
 62
     7
100
AcDbLine
 10
-2.5
 20
2.49999999999994
 30
0.0
 11
-2.5
 21
146.0000000000001
 31
0.0
  0
LINE
  5
7C
330
1F
100
AcDbEntity
  8
1
  6
Continuous
 62
     7
100
AcDbLine
 10
0.0
 20
148.5000000000001
 30
0.0
 11
-105.0000000000001
 21
148.5000000000001
 31
0.0
  0
LINE
  5
7D
330
1F
100
AcDbEntity
  8
1
  6
Continuous
 62
     7
100
AcDbLine
 10
-105.0000000000001
 20
148.5000000000001
 30
0.0
 11
-105.0000000000001
 21
0.0
 31
0.0
  0
LINE
  5
7E
330
1F
100
AcDbEntity
  8
1
  6
Continuous
 62
     7
100
AcDbLine
 10
-105.0000000000001
 20
0.0
 30
0.0
 11
0.0
 21
0.0
 31
0.0
  0
LINE
  5
7F
330
1F
100
AcDbEntity
  8
1
  6
Continuous
 62
     7
100
AcDbLine
 10
0.0
 20
0.0
 30
0.0
 11
0.0
 21
148.5000000000001
 31
0.0
  0
LINE
  5
80
330
1F
100
AcDbEntity
  8
1
  6
Continuous
 62
     7
100
AcDbLine
 10
-105.0000000000001
 20
74.2499999999999
 30
0.0
 11
-97.50000000000006
 21
74.2499999999999
 31
0.0
  0
LINE
  5
81
330
1F
100
AcDbEntity
  8
1
  6
Continuous
 62
     7
100
AcDbLine
 10
-94.5
 20
6.25
 30
0.0
 11
-79.5
 21
6.25
 31
0.0
  0
LINE
  5
82
330
1F
100
AcDbEntity
  8
1
  6
Continuous
 62
     7
100
AcDbLine
 10
-79.5
 20
10.0
 30
0.0
 11
-79.5
 21
2.5
 31
0.0
  0
LINE
  5
83
330
1F
100
AcDbEntity
  8
1
  6
Continuous
 62
     7
100
AcDbLine
 10
-94.5
 20
10.0
 30
0.0
 11
-2.5
 21
10.0
 31
0.0
  0
LINE
  5
84
330
1F
100
AcDbEntity
  8
1
  6
Continuous
 62
     7
100
AcDbLine
 10
-15.82369931125732
 20
10.0
 30
0.0
 11
-15.82369931125732
 21
2.5
 31
0.0
  0
LINE
  5
85
102
{ACAD_REACTORS
330
32D
102
}
330
1F
100
AcDbEntity
  8
1
  6
Continuous
 62
     7
100
AcDbLine
 10
-8.66184965562866
 20
6.25
 30
0.0
 11
-8.66184965562866
 21
7.11602540378442
 31
0.0
  0
LINE
  5
86
102
{ACAD_REACTORS
330
32D
102
}
330
1F
100
AcDbEntity
  8
1
  6
Continuous
 62
     7
100
AcDbLine
 10
-8.66184965562866
 20
7.11602540378442
 30
0.0
 11
-9.08968087197997
 21
6.375
 31
0.0
  0
LINE
  5
87
102
{ACAD_REACTORS
330
32D
102
}
330
1F
100
AcDbEntity
  8
1
  6
Continuous
 62
     7
100
AcDbLine
 10
-9.23401843927741
 20
6.375
 30
0.0
 11
-9.66184965562866
 21
7.11602540378442
 31
0.0
  0
LINE
  5
88
102
{ACAD_REACTORS
330
32D
102
}
330
1F
100
AcDbEntity
  8
1
  6
Continuous
 62
     7
100
AcDbLine
 10
-9.66184965562866
 20
7.11602540378442
 30
0.0
 11
-9.66184965562866
 21
6.25
 31
0.0
  0
LINE
  5
89
330
1F
100
AcDbEntity
  8
1
  6
Continuous
 62
     7
100
AcDbLine
 10
-13.37006729319944
 20
6.32218213217066
 30
0.0
 11
-9.16184965562866
 21
8.75
 31
0.0
  0
LINE
  5
8A
330
1F
100
AcDbEntity
  8
1
  6
Continuous
 62
     7
100
AcDbLine
 10
-9.16184965562866
 20
8.75
 30
0.0
 11
-4.95363201805793
 21
6.32218213217066
 31
0.0
  0
LINE
  5
8B
330
1F
100
AcDbEntity
  8
1
  6
Continuous
 62
     7
100
AcDbLine
 10
-4.95363201805793
 20
6.17781786782928
 30
0.0
 11
-9.16184965562866
 21
3.75
 31
0.0
  0
LINE
  5
8C
330
1F
100
AcDbEntity
  8
1
  6
Continuous
 62
     7
100
AcDbLine
 10
-9.16184965562866
 20
3.75
 30
0.0
 11
-13.37006729319944
 21
6.17781786782928
 31
0.0
  0
LINE
  5
8D
102
{ACAD_REACTORS
330
32D
102
}
330
1F
100
AcDbEntity
  8
1
  6
Continuous
 62
     7
100
AcDbLine
 10
-9.99518298896203
 20
6.25
 30
0.0
 11
-9.99518298896203
 21
7.86560865601728
 31
0.0
  0
LINE
  5
8E
102
{ACAD_REACTORS
330
32D
102
}
330
1F
100
AcDbEntity
  8
1
  6
Continuous
 62
     7
100
AcDbLine
 10
-9.74796614715029
 20
7.93185020913614
 30
0.0
 11
-9.16184965562866
 21
6.91666666666663
 31
0.0
  0
LINE
  5
8F
102
{ACAD_REACTORS
330
32D
102
}
330
1F
100
AcDbEntity
  8
1
  6
Continuous
 62
     7
100
AcDbLine
 10
-9.99518298896203
 20
6.25
 30
0.0
 11
-9.99518298896203
 21
5.42379253631646
 31
0.0
  0
LINE
  5
90
102
{ACAD_REACTORS
330
32D
102
}
330
1F
100
AcDbEntity
  8
1
  6
Continuous
 62
     7
100
AcDbLine
 10
-9.66184965562866
 20
5.42379253631646
 30
0.0
 11
-9.66184965562866
 21
6.25
 31
0.0
  0
LINE
  5
91
102
{ACAD_REACTORS
330
32D
102
}
330
1F
100
AcDbEntity
  8
1
  6
Continuous
 62
     7
100
AcDbLine
 10
-8.66184965562866
 20
6.25
 30
0.0
 11
-8.66184965562866
 21
4.6541345353009
 31
0.0
  0
LINE
  5
92
102
{ACAD_REACTORS
330
32D
102
}
330
1F
100
AcDbEntity
  8
1
  6
Continuous
 62
     7
100
AcDbLine
 10
-8.32851632229534
 20
4.6541345353009
 30
0.0
 11
-8.32851632229534
 21
7.86560865601728
 31
0.0
  0
LINE
  5
93
102
{ACAD_REACTORS
330
32D
102
}
330
1F
100
AcDbEntity
  8
1
  6
Continuous
 62
     7
100
AcDbLine
 10
-8.57573316410702
 20
7.93185020913614
 30
0.0
 11
-9.16184965562866
 21
6.91666666666663
 31
0.0
  0
LINE
  5
94
102
{ACAD_REACTORS
330
32E
102
}
330
1F
100
AcDbEntity
  8
1
  6
Continuous
 62
     7
100
AcDbLine
 10
-10.66184965562866
 20
5.13501057401629
 30
0.0
 11
-10.66184965562866
 21
7.46125008008368
 31
0.0
  0
LINE
  5
95
102
{ACAD_REACTORS
330
32E
102
}
330
1F
100
AcDbEntity
  8
1
  6
Continuous
 62
     7
100
AcDbLine
 10
-10.32851632229534
 20
7.46125008008368
 30
0.0
 11
-10.32851632229534
 21
5.13501057401635
 31
0.0
  0
LINE
  5
96
102
{ACAD_REACTORS
330
32E
102
}
330
1F
100
AcDbEntity
  8
1
  6
Continuous
 62
     7
100
AcDbLine
 10
-10.32851632229534
 20
5.13501057401635
 30
0.0
 11
-9.24522924671373
 21
4.5100372611808
 31
0.0
  0
LINE
  5
97
102
{ACAD_REACTORS
330
32E
102
}
330
1F
100
AcDbEntity
  8
1
  6
Continuous
 62
     7
100
AcDbLine
 10
-9.41180339787695
 20
4.2213087324979
 30
0.0
 11
-10.4950904734585
 21
4.84628204533345
 31
0.0
  0
LINE
  5
98
102
{ACAD_REACTORS
330
32C
102
}
330
1F
100
AcDbEntity
  8
1
  6
Continuous
 62
     7
100
AcDbLine
 10
-10.99518298896203
 20
7.07663469546833
 30
0.0
 11
-10.99518298896203
 21
5.51962595863165
 31
0.0
  0
LINE
  5
99
102
{ACAD_REACTORS
330
32C
102
}
330
1F
100
AcDbEntity
  8
1
  6
Continuous
 62
     7
100
AcDbLine
 10
-10.99518298896203
 20
5.51962595863165
 30
0.0
 11
-10.99518298896203
 21
5.42336530453162
 31
0.0
  0
LINE
  5
9A
102
{ACAD_REACTORS
330
32C
102
}
330
1F
100
AcDbEntity
  8
1
  6
Continuous
 62
     7
100
AcDbLine
 10
-11.32851632229534
 20
5.42336530453162
 30
0.0
 11
-11.32851632229534
 21
7.07663469546833
 31
0.0
  0
LINE
  5
9B
102
{ACAD_REACTORS
330
32F
102
}
330
1F
100
AcDbEntity
  8
1
  6
Continuous
 62
     7
100
AcDbLine
 10
-7.74522924671373
 20
7.60561434442514
 30
0.0
 11
-7.07856258004711
 21
7.22099895980972
 31
0.0
  0
LINE
  5
9C
102
{ACAD_REACTORS
330
32F
102
}
330
1F
100
AcDbEntity
  8
1
  6
Continuous
 62
     7
100
AcDbLine
 10
-7.24513673121027
 20
6.93227043112688
 30
0.0
 11
-7.66184965562866
 21
7.17268173367597
 31
0.0
  0
LINE
  5
9D
102
{ACAD_REACTORS
330
32F
102
}
330
1F
100
AcDbEntity
  8
1
  6
Continuous
 62
     7
100
AcDbLine
 10
-7.66184965562866
 20
7.17268173367597
 30
0.0
 11
-7.66184965562866
 21
6.41666666666663
 31
0.0
  0
LINE
  5
9E
102
{ACAD_REACTORS
330
32F
102
}
330
1F
100
AcDbEntity
  8
1
  6
Continuous
 62
     7
100
AcDbLine
 10
-7.66184965562866
 20
6.41666666666663
 30
0.0
 11
-7.16184965562866
 21
6.41666666666663
 31
0.0
  0
LINE
  5
9F
102
{ACAD_REACTORS
330
32F
102
}
330
1F
100
AcDbEntity
  8
1
  6
Continuous
 62
     7
100
AcDbLine
 10
-7.16184965562866
 20
6.08333333333332
 30
0.0
 11
-7.66184965562866
 21
6.08333333333332
 31
0.0
  0
LINE
  5
A0
102
{ACAD_REACTORS
330
32F
102
}
330
1F
100
AcDbEntity
  8
1
  6
Continuous
 62
     7
100
AcDbLine
 10
-7.66184965562866
 20
6.08333333333332
 30
0.0
 11
-7.66184965562866
 21
5.32731826632397
 31
0.0
  0
LINE
  5
A1
102
{ACAD_REACTORS
330
32F
102
}
330
1F
100
AcDbEntity
  8
1
  6
Continuous
 62
     7
100
AcDbLine
 10
-7.66184965562866
 20
5.32731826632397
 30
0.0
 11
-7.24513673121027
 21
5.56772956887312
 31
0.0
  0
LINE
  5
A2
102
{ACAD_REACTORS
330
32F
102
}
330
1F
100
AcDbEntity
  8
1
  6
Continuous
 62
     7
100
AcDbLine
 10
-7.07856258004711
 20
5.27900104019016
 30
0.0
 11
-7.74522924671373
 21
4.89438565557487
 31
0.0
  0
LINE
  5
A3
102
{ACAD_REACTORS
330
32F
102
}
330
1F
100
AcDbEntity
  8
1
  6
Continuous
 62
     7
100
AcDbLine
 10
-7.99518298896197
 20
5.03874991991631
 30
0.0
 11
-7.99518298896197
 21
7.46125008008368
 31
0.0
  0
LINE
  5
A4
330
1F
100
AcDbEntity
  8
1
  6
Continuous
 62
     7
100
AcDbLine
 10
-24.5
 20
10.0
 30
0.0
 11
-24.5
 21
2.5
 31
0.0
  0
LINE
  5
A5
330
1F
100
AcDbEntity
  8
1
  6
Continuous
 62
     7
100
AcDbLine
 10
-94.5
 20
10.0
 30
0.0
 11
-94.5
 21
2.49999999999994
 31
0.0
  0
LINE
  5
A6
330
1F
100
AcDbEntity
  8
1
  6
Continuous
 62
     7
100
AcDbLine
 10
-94.5
 20
2.49999999999994
 30
0.0
 11
-2.5
 21
2.49999999999994
 31
0.0
  0
LINE
  5
A7
330
1F
100
AcDbEntity
  8
1
  6
Continuous
 62
     7
100
AcDbLine
 10
-62.65385130253891
 20
78.07977124805852
 30
0.0
 11
-63.21953672748815
 21
77.51408582310928
 31
0.0
  0
LINE
  5
A8
330
1F
100
AcDbEntity
  8
1
  6
Continuous
 62
     7
100
AcDbLine
 10
-64.84588232421721
 20
80.27180226973681
 30
0.0
 11
-65.41156774916642
 21
79.70611684478757
 31
0.0
  0
LINE
  5
A9
330
1F
100
AcDbEntity
  8
1
  6
Continuous
 62
     7
100
AcDbLine
 10
-63.21953672748812
 20
80.27180226973684
 30
0.0
 11
-62.65385130253891
 21
79.70611684478759
 31
0.0
  0
LINE
  5
AA
330
1F
100
AcDbEntity
  8
1
  6
Continuous
 62
     7
100
AcDbLine
 10
-64.84588232421721
 20
77.51408582310927
 30
0.0
 11
-65.41156774916648
 21
78.07977124805852
 31
0.0
  0
LINE
  5
AB
330
1F
100
AcDbEntity
  8
1
  6
Continuous
 62
     7
100
AcDbLine
 10
-62.65385130253891
 20
79.70611684478759
 30
0.0
 11
-63.64380079620007
 21
79.06972074171969
 31
0.0
  0
LINE
  5
AC
330
1F
100
AcDbEntity
  8
1
  6
Continuous
 62
     7
100
AcDbLine
 10
-63.21953672748812
 20
80.27180226973684
 30
0.0
 11
-63.85593283055603
 21
79.28185277607567
 31
0.0
  0
LINE
  5
AD
330
1F
100
AcDbEntity
  8
1
  6
Continuous
 62
     7
100
AcDbLine
 10
-65.41156774916648
 20
78.07977124805852
 30
0.0
 11
-64.4216182555053
 21
78.71616735112642
 31
0.0
  0
LINE
  5
AE
330
1F
100
AcDbEntity
  8
1
  6
Continuous
 62
     7
100
AcDbLine
 10
-64.84588232421721
 20
77.51408582310927
 30
0.0
 11
-64.2094862211493
 21
78.50403531677044
 31
0.0
  0
LINE
  5
AF
330
1F
100
AcDbEntity
  8
1
  6
Continuous
 62
     7
100
AcDbLine
 10
-63.21953672748815
 20
77.51408582310928
 30
0.0
 11
-63.85593283055603
 21
78.50403531677044
 31
0.0
  0
LINE
  5
B0
330
1F
100
AcDbEntity
  8
1
  6
Continuous
 62
     7
100
AcDbLine
 10
-62.65385130253891
 20
78.07977124805852
 30
0.0
 11
-63.6438007962001
 21
78.7161673511264
 31
0.0
  0
LINE
  5
B1
330
1F
100
AcDbEntity
  8
1
  6
Continuous
 62
     7
100
AcDbLine
 10
-64.2094862211493
 20
79.28185277607565
 30
0.0
 11
-64.84588232421721
 21
80.27180226973681
 31
0.0
  0
LINE
  5
B2
330
1F
100
AcDbEntity
  8
1
  6
Continuous
 62
     7
100
AcDbLine
 10
-64.4216182555053
 20
79.06972074171969
 30
0.0
 11
-65.41156774916642
 21
79.70611684478757
 31
0.0
  0
LINE
  5
B3
330
1F
100
AcDbEntity
  8
1
  6
Continuous
 62
     7
100
AcDbLine
 10
-63.6438007962001
 20
78.7161673511264
 30
0.0
 11
-63.85593283055603
 21
78.50403531677044
 31
0.0
  0
LINE
  5
B4
330
1F
100
AcDbEntity
  8
1
  6
Continuous
 62
     7
100
AcDbLine
 10
-63.64380079620007
 20
79.06972074171969
 30
0.0
 11
-63.85593283055603
 21
79.28185277607567
 31
0.0
  0
LINE
  5
B5
330
1F
100
AcDbEntity
  8
1
  6
Continuous
 62
     7
100
AcDbLine
 10
-64.2094862211493
 20
79.28185277607565
 30
0.0
 11
-64.4216182555053
 21
79.06972074171969
 31
0.0
  0
LINE
  5
B6
330
1F
100
AcDbEntity
  8
1
  6
Continuous
 62
     7
100
AcDbLine
 10
-64.2094862211493
 20
78.50403531677044
 30
0.0
 11
-64.4216182555053
 21
78.71616735112642
 31
0.0
  0
LINE
  5
B7
330
1F
100
AcDbEntity
  8
1
  6
Continuous
 62
     7
100
AcDbLine
 10
-62.65385130253891
 20
78.07977124805852
 30
0.0
 11
-63.25489206654738
 21
78.89294404642312
 31
0.0
  0
LINE
  5
B8
330
1F
100
AcDbEntity
  8
1
  6
Continuous
 62
     7
100
AcDbLine
 10
-64.84588232421721
 20
80.27180226973681
 30
0.0
 11
-64.03270952585258
 21
79.67076150572832
 31
0.0
  0
LINE
  5
B9
330
1F
100
AcDbEntity
  8
1
  6
Continuous
 62
     7
100
AcDbLine
 10
-65.41156774916642
 20
79.70611684478757
 30
0.0
 11
-64.81052698515789
 21
78.89294404642304
 31
0.0
  0
LINE
  5
BA
330
1F
100
AcDbEntity
  8
1
  6
Continuous
 62
     7
100
AcDbLine
 10
-64.84588232421721
 20
77.51408582310927
 30
0.0
 11
-64.0327095258527
 21
78.11512658711783
 31
0.0
  0
LINE
  5
BB
330
1F
100
AcDbEntity
  8
1
  6
Continuous
 62
     7
100
AcDbLine
 10
-65.41156774916648
 20
78.07977124805852
 30
0.0
 11
-64.81052698515789
 21
78.89294404642304
 31
0.0
  0
LINE
  5
BC
330
1F
100
AcDbEntity
  8
1
  6
Continuous
 62
     7
100
AcDbLine
 10
-62.65385130253891
 20
79.70611684478759
 30
0.0
 11
-63.25489206654738
 21
78.89294404642312
 31
0.0
  0
LINE
  5
BD
330
1F
100
AcDbEntity
  8
1
  6
Continuous
 62
     7
100
AcDbLine
 10
-63.21953672748812
 20
80.27180226973684
 30
0.0
 11
-64.03270952585258
 21
79.67076150572832
 31
0.0
  0
LINE
  5
BE
330
1F
100
AcDbEntity
  8
1
  6
Continuous
 62
     7
100
AcDbLine
 10
-63.21953672748815
 20
77.51408582310928
 30
0.0
 11
-64.0327095258527
 21
78.11512658711783
 31
0.0
  0
LINE
  5
BF
330
1F
100
AcDbEntity
  8
1
  6
Continuous
 62
     7
100
AcDbLine
 10
-63.6438007962001
 20
78.7161673511264
 30
0.0
 11
-63.73524654863299
 21
78.83047454166767
 31
0.0
  0
LINE
  5
C0
330
1F
100
AcDbEntity
  8
1
  6
Continuous
 62
     7
100
AcDbLine
 10
-63.64380079620007
 20
79.06972074171969
 30
0.0
 11
-63.73524654863302
 21
78.95541355117847
 31
0.0
  0
LINE
  5
C1
330
1F
100
AcDbEntity
  8
1
  6
Continuous
 62
     7
100
AcDbLine
 10
-64.0951790306081
 20
78.59548106920339
 30
0.0
 11
-64.2094862211493
 21
78.50403531677044
 31
0.0
  0
LINE
  5
C2
330
1F
100
AcDbEntity
  8
1
  6
Continuous
 62
     7
100
AcDbLine
 10
-63.85593283055603
 20
78.50403531677044
 30
0.0
 11
-63.97024002109724
 21
78.59548106920343
 31
0.0
  0
LINE
  5
C3
330
1F
100
AcDbEntity
  8
1
  6
Continuous
 62
     7
100
AcDbLine
 10
-63.85593283055603
 20
79.28185277607567
 30
0.0
 11
-63.97024002109724
 21
79.19040702364269
 31
0.0
  0
LINE
  5
C4
330
1F
100
AcDbEntity
  8
1
  6
Continuous
 62
     7
100
AcDbLine
 10
-64.2094862211493
 20
79.28185277607565
 30
0.0
 11
-64.09517903060807
 21
79.19040702364275
 31
0.0
  0
LINE
  5
C5
330
1F
100
AcDbEntity
  8
1
  6
Continuous
 62
     7
100
AcDbLine
 10
-64.4216182555053
 20
79.06972074171969
 30
0.0
 11
-64.33017250307229
 21
78.9554135511785
 31
0.0
  0
LINE
  5
C6
330
1F
100
AcDbEntity
  8
1
  6
Continuous
 62
     7
100
AcDbLine
 10
-64.33017250307229
 20
78.83047454166761
 30
0.0
 11
-64.4216182555053
 21
78.71616735112642
 31
0.0
  0
LINE
  5
C7
330
1F
100
AcDbEntity
  8
1
  6
Continuous
 62
     7
100
AcDbLine
 10
-63.21953672748812
 20
80.27180226973684
 30
0.0
 11
-62.39037548318386
 21
81.1009635140411
 31
0.0
  0
LINE
  5
C8
330
1F
100
AcDbEntity
  8
1
  6
Continuous
 62
     7
100
AcDbLine
 10
-62.65385130253891
 20
79.70611684478759
 30
0.0
 11
-61.82469005823465
 21
80.53527808909185
 31
0.0
  0
LINE
  5
C9
330
1F
100
AcDbEntity
  8
1
  6
Continuous
 62
     7
100
AcDbLine
 10
-65.41156774916648
 20
78.07977124805852
 30
0.0
 11
-66.23941553908439
 21
77.25192345814058
 31
0.0
  0
LINE
  5
CA
330
1F
100
AcDbEntity
  8
1
  6
Continuous
 62
     7
100
AcDbLine
 10
-64.84588232421721
 20
77.51408582310927
 30
0.0
 11
-65.67373011413515
 21
76.68623803319132
 31
0.0
  0
LINE
  5
CB
330
1F
100
AcDbEntity
  8
1
  6
Continuous
 62
     7
100
AcDbLine
 10
-15.53270952585267
 20
80.93496439228919
 30
0.0
 11
-14.93270952585239
 21
81.47709475043517
 31
0.0
  0
LINE
  5
CC
330
1F
100
AcDbEntity
  8
1
  6
Continuous
 62
     7
100
AcDbLine
 10
-15.53270952585267
 20
80.55761354466689
 30
0.0
 11
-14.93270952585239
 21
80.99956226185111
 31
0.0
  0
LINE
  5
CD
330
1F
100
AcDbEntity
  8
1
  6
Continuous
 62
     7
100
AcDbLine
 10
-15.53270952585267
 20
79.97947850481229
 30
0.0
 11
-14.93270952585239
 21
80.26794004327397
 31
0.0
  0
LINE
  5
CE
330
1F
100
AcDbEntity
  8
1
  6
Continuous
 62
     7
100
AcDbLine
 10
-15.53270952585267
 20
79.27029089089632
 30
0.0
 11
-14.93270952585239
 21
79.37047253185806
 31
0.0
  0
LINE
  5
CF
330
1F
100
AcDbEntity
  8
1
  6
Continuous
 62
     7
100
AcDbLine
 10
-15.53270952585267
 20
78.51558919565161
 30
0.0
 11
-14.93270952585239
 21
78.41540755468988
 31
0.0
  0
LINE
  5
D0
330
1F
100
AcDbEntity
  8
1
  6
Continuous
 62
     7
100
AcDbLine
 10
-15.53270952585267
 20
77.80640158173563
 30
0.0
 11
-14.93270952585239
 21
77.51794004327397
 31
0.0
  0
LINE
  5
D1
330
1F
100
AcDbEntity
  8
1
  6
Continuous
 62
     7
100
AcDbLine
 10
-15.53270952585267
 20
77.22826654188097
 30
0.0
 11
-14.93270952585242
 21
76.78631782469675
 31
0.0
  0
LINE
  5
D2
330
1F
100
AcDbEntity
  8
1
  6
Continuous
 62
     7
100
AcDbLine
 10
-15.53270952585267
 20
76.85091569425866
 30
0.0
 11
-14.93270952585239
 21
76.30878533611268
 31
0.0
  0
LINE
  5
D3
330
1F
100
AcDbEntity
  8
1
  6
Continuous
 62
     7
100
AcDbLine
 10
-15.53270952585267
 20
76.6929400432742
 30
0.0
 11
-14.93270952585239
 21
76.09294004327394
 31
0.0
  0
LINE
  5
D4
330
1F
100
AcDbEntity
  8
1
  6
Continuous
 62
     7
100
AcDbLine
 10
-14.93270952585239
 20
81.69294004327391
 30
0.0
 11
-15.53270952585267
 21
81.09294004327366
 31
0.0
  0
LINE
  5
D5
330
1F
100
AcDbEntity
  8
1
  6
Continuous
 62
     7
100
AcDbLine
 10
-14.58270952585237
 20
81.69294004327391
 30
0.0
 11
-14.93270952585239
 21
81.69294004327391
 31
0.0
  0
LINE
  5
D6
330
1F
100
AcDbEntity
  8
1
  6
Continuous
 62
     7
100
AcDbLine
 10
-14.93270952585239
 20
76.09294004327394
 30
0.0
 11
-14.58270952585237
 21
76.09294004327394
 31
0.0
  0
LINE
  5
D7
330
1F
100
AcDbEntity
  8
1
  6
Continuous
 62
     7
100
AcDbLine
 10
-14.93270952585239
 20
81.69294004327391
 30
0.0
 11
-14.93270952585239
 21
76.09294004327394
 31
0.0
  0
LINE
  5
D8
330
1F
100
AcDbEntity
  8
1
  6
Continuous
 62
     7
100
AcDbLine
 10
-14.078470958735
 20
77.25191945499147
 30
0.0
 11
-14.58270952585237
 21
77.25191945499147
 31
0.0
  0
LINE
  5
D9
330
1F
100
AcDbEntity
  8
1
  6
Continuous
 62
     7
100
AcDbLine
 10
-14.58270952585237
 20
77.25191945499147
 30
0.0
 11
-14.58270952585237
 21
76.6862340300422
 31
0.0
  0
LINE
  5
DA
330
1F
100
AcDbEntity
  8
1
  6
Continuous
 62
     7
100
AcDbLine
 10
-14.58270952585237
 20
76.6862340300422
 30
0.0
 11
-14.2856755782271
 21
76.6862340300422
 31
0.0
  0
LINE
  5
DB
330
1F
100
AcDbEntity
  8
0
  6
Continuous
 62
     7
100
AcDbLine
 10
-15.78270952585267
 20
93.39294004327391
 30
0.0
 11
-17.33270952585271
 21
93.39294004327391
 31
0.0
  0
LINE
  5
DC
330
1F
100
AcDbEntity
  8
0
  6
Continuous
 62
     7
100
AcDbLine
 10
-18.53270952585267
 20
84.19294004327392
 30
0.0
 11
-18.53270952585267
 21
81.19294004327392
 31
0.0
  0
LINE
  5
DD
330
1F
100
AcDbEntity
  8
0
  6
Continuous
 62
     7
100
AcDbLine
 10
-18.53270952585267
 20
93.39294004327391
 30
0.0
 11
-18.53270952585267
 21
84.19294004327392
 31
0.0
  0
LINE
  5
DE
330
1F
100
AcDbEntity
  8
0
  6
Continuous
 62
     7
100
AcDbLine
 10
-18.53270952585267
 20
93.39294004327391
 30
0.0
 11
-18.78270952585267
 21
93.39294004327391
 31
0.0
  0
LINE
  5
DF
330
1F
100
AcDbEntity
  8
0
  6
Continuous
 62
     7
100
AcDbLine
 10
-17.33270952585271
 20
93.39294004327391
 30
0.0
 11
-18.53270952585267
 21
93.39294004327391
 31
0.0
  0
LINE
  5
E0
330
1F
100
AcDbEntity
  8
0
  6
Continuous
 62
     7
100
AcDbLine
 10
-15.78270952585267
 20
93.39294004327391
 30
0.0
 11
-15.78270952585267
 21
81.19294004327392
 31
0.0
  0
LINE
  5
E1
330
1F
100
AcDbEntity
  8
0
  6
Continuous
 62
     7
100
AcDbLine
 10
-18.53270952585267
 20
61.89294004327391
 30
0.0
 11
-18.53270952585272
 21
65.7429400432739
 31
0.0
  0
LINE
  5
E2
330
1F
100
AcDbEntity
  8
0
  6
Continuous
 62
     7
100
AcDbLine
 10
-18.53270952585267
 20
61.89294004327391
 30
0.0
 11
-15.53270952585267
 21
61.89294004327391
 31
0.0
  0
LINE
  5
E3
330
1F
100
AcDbEntity
  8
0
  6
Continuous
 62
     7
100
AcDbLine
 10
-15.53270952585267
 20
61.89294004327391
 30
0.0
 11
-15.53270952585267
 21
65.7429400432739
 31
0.0
  0
LINE
  5
E4
330
1F
100
AcDbEntity
  8
0
  6
Continuous
 62
     7
100
AcDbLine
 10
-36.28270952585267
 20
93.39294004327391
 30
0.0
 11
-36.28270952585267
 21
81.19294004327392
 31
0.0
  0
LINE
  5
E5
330
1F
100
AcDbEntity
  8
0
  6
Continuous
 62
     7
100
AcDbLine
 10
-33.53270952585267
 20
93.39294004327391
 30
0.0
 11
-36.28270952585267
 21
93.39294004327391
 31
0.0
  0
LINE
  5
E6
330
1F
100
AcDbEntity
  8
0
  6
Continuous
 62
     7
100
AcDbLine
 10
-36.53270952585267
 20
81.19294004327392
 30
0.0
 11
-33.53270952585267
 21
81.19294004327392
 31
0.0
  0
LINE
  5
E7
330
1F
100
AcDbEntity
  8
0
  6
Continuous
 62
     7
100
AcDbLine
 10
-33.53270952585267
 20
61.89294004327391
 30
0.0
 11
-33.53270952585272
 21
65.7429400432739
 31
0.0
  0
LINE
  5
E8
330
1F
100
AcDbEntity
  8
0
  6
Continuous
 62
     7
100
AcDbLine
 10
-36.53270952585267
 20
61.89294004327391
 30
0.0
 11
-33.53270952585267
 21
61.89294004327391
 31
0.0
  0
LINE
  5
E9
330
1F
100
AcDbEntity
  8
0
  6
Continuous
 62
     7
100
AcDbLine
 10
-36.53270952585267
 20
61.89294004327391
 30
0.0
 11
-36.53270952585267
 21
65.7429400432739
 31
0.0
  0
LINE
  5
EA
330
1F
100
AcDbEntity
  8
0
  6
Continuous
 62
     7
100
AcDbLine
 10
-36.53270952585267
 20
68.0429400432739
 30
0.0
 11
-36.53270952585267
 21
81.19294004327392
 31
0.0
  0
LINE
  5
EB
330
1F
100
AcDbEntity
  8
0
  6
Continuous
 62
     7
100
AcDbLine
 10
-33.53270952585272
 20
68.0429400432739
 30
0.0
 11
-33.53270952585267
 21
81.19294004327392
 31
0.0
  0
LINE
  5
EC
330
1F
100
AcDbEntity
  8
0
  6
Continuous
 62
     7
100
AcDbLine
 10
-18.53270952585267
 20
61.89294004327391
 30
0.0
 11
-33.53270952585267
 21
61.89294004327391
 31
0.0
  0
LINE
  5
ED
330
1F
100
AcDbEntity
  8
0
  6
Continuous
 62
     7
100
AcDbLine
 10
-15.53270952585267
 20
68.0429400432739
 30
0.0
 11
-15.53270952585267
 21
81.19294004327392
 31
0.0
  0
LINE
  5
EE
330
1F
100
AcDbEntity
  8
0
  6
Continuous
 62
     7
100
AcDbLine
 10
-18.53270952585272
 20
68.0429400432739
 30
0.0
 11
-18.53270952585267
 21
81.19294004327392
 31
0.0
  0
LINE
  5
EF
330
1F
100
AcDbEntity
  8
0
  6
Continuous
 62
     7
100
AcDbLine
 10
-15.78270952585267
 20
81.19294004327392
 30
0.0
 11
-15.53270952585267
 21
81.19294004327392
 31
0.0
  0
LINE
  5
F0
330
1F
100
AcDbEntity
  8
0
  6
Continuous
 62
     7
100
AcDbLine
 10
-18.53270952585267
 20
81.19294004327392
 30
0.0
 11
-15.78270952585267
 21
81.19294004327392
 31
0.0
  0
LINE
  5
F1
330
1F
100
AcDbEntity
  8
0
  6
Continuous
 62
     7
100
AcDbLine
 10
-18.53270952585267
 20
84.19294004327392
 30
0.0
 11
-27.03270952585267
 21
84.19294004327392
 31
0.0
  0
LINE
  5
F2
330
1F
100
AcDbEntity
  8
0
  6
Continuous
 62
     7
100
AcDbLine
 10
-18.53270952585267
 20
81.19294004327392
 30
0.0
 11
-33.53270952585267
 21
81.19294004327392
 31
0.0
  0
LINE
  5
F3
330
1F
100
AcDbEntity
  8
0
  6
Continuous
 62
     7
100
AcDbLine
 10
-33.53270952585267
 20
93.39294004327391
 30
0.0
 11
-33.53270952585267
 21
81.19294004327392
 31
0.0
  0
LINE
  5
F4
330
1F
100
AcDbEntity
  8
0
  6
Continuous
 62
     7
100
AcDbLine
 10
-27.03270952585267
 20
93.39294004327391
 30
0.0
 11
-33.53270952585267
 21
93.39294004327391
 31
0.0
  0
LINE
  5
F5
330
1F
100
AcDbEntity
  8
0
  6
Continuous
 62
     7
100
AcDbLine
 10
-27.03270952585267
 20
84.19294004327392
 30
0.0
 11
-27.03270952585267
 21
93.39294004327391
 31
0.0
  0
LINE
  5
F6
330
1F
100
AcDbEntity
  8
0
  6
Continuous
 62
     7
100
AcDbLine
 10
-27.03270952585267
 20
93.39294004327391
 30
0.0
 11
-26.78270952585267
 21
93.39294004327391
 31
0.0
  0
LINE
  5
F7
330
1F
100
AcDbEntity
  8
0
  6
Continuous
 62
     7
100
AcDbLine
 10
-24.13270952585266
 20
93.39294004327391
 30
0.0
 11
-24.03270952585267
 21
93.39294004327391
 31
0.0
  0
LINE
  5
F8
330
1F
100
AcDbEntity
  8
0
  6
Continuous
 62
     7
100
AcDbLine
 10
-21.53270952585267
 20
87.59294004327391
 30
0.0
 11
-24.03270952585267
 21
87.59294004327391
 31
0.0
  0
LINE
  5
F9
330
1F
100
AcDbEntity
  8
0
  6
Continuous
 62
     7
100
AcDbLine
 10
-24.03270952585267
 20
87.59294004327391
 30
0.0
 11
-24.03270952585267
 21
93.39294004327391
 31
0.0
  0
LINE
  5
FA
330
1F
100
AcDbEntity
  8
0
  6
Continuous
 62
     7
100
AcDbLine
 10
-22.08270952585268
 20
93.39294004327391
 30
0.0
 11
-21.53270952585267
 21
93.39294004327391
 31
0.0
  0
LINE
  5
FB
330
1F
100
AcDbEntity
  8
0
  6
Continuous
 62
     7
100
AcDbLine
 10
-22.08270952585268
 20
93.39294004327391
 30
0.0
 11
-24.03270952585267
 21
93.39294004327391
 31
0.0
  0
LINE
  5
FC
330
1F
100
AcDbEntity
  8
0
  6
Continuous
 62
     7
100
AcDbLine
 10
-21.53270952585267
 20
93.39294004327391
 30
0.0
 11
-21.53270952585267
 21
87.59294004327391
 31
0.0
  0
LINE
  5
FD
330
1F
100
AcDbEntity
  8
0
  6
Continuous
 62
     7
100
AcDbLine
 10
-21.53270952585267
 20
93.39294004327391
 30
0.0
 11
-21.43270952585267
 21
93.39294004327391
 31
0.0
  0
LINE
  5
FE
330
1F
100
AcDbEntity
  8
0
  6
Continuous
 62
     7
100
AcDbLine
 10
-20.18270952585267
 20
97.99294004327392
 30
0.0
 11
-20.18270952585267
 21
95.39294004327391
 31
0.0
  0
LINE
  5
FF
330
1F
100
AcDbEntity
  8
0
  6
Continuous
 62
     7
100
AcDbLine
 10
-22.68270952585267
 20
99.62522760882715
 30
0.0
 11
-22.68270952585267
 21
102.6929400432739
 31
0.0
  0
LINE
  5
100
330
1F
100
AcDbEntity
  8
0
  6
Continuous
 62
     7
100
AcDbLine
 10
-22.68270952585267
 20
102.6929400432739
 30
0.0
 11
-17.68270952585267
 21
102.6929400432739
 31
0.0
  0
LINE
  5
101
330
1F
100
AcDbEntity
  8
0
  6
Continuous
 62
     7
100
AcDbLine
 10
-17.68270952585267
 20
99.69294004327392
 30
0.0
 11
-17.68270952585267
 21
102.6929400432739
 31
0.0
  0
LINE
  5
102
330
1F
100
AcDbEntity
  8
0
  6
Continuous
 62
     7
100
AcDbLine
 10
-20.18270952585267
 20
99.69294004327392
 30
0.0
 11
-22.53270952585267
 21
99.69294004327392
 31
0.0
  0
LINE
  5
103
330
1F
100
AcDbEntity
  8
0
  6
Continuous
 62
     7
100
AcDbLine
 10
-17.53270952585272
 20
99.69294004327392
 30
0.0
 11
-18.00039424157315
 21
99.69294004327392
 31
0.0
  0
LINE
  5
104
330
1F
100
AcDbEntity
  8
0
  6
Continuous
 62
     7
100
AcDbLine
 10
-20.18270952585267
 20
99.69294004327392
 30
0.0
 11
-18.00039424157315
 21
99.69294004327392
 31
0.0
  0
LINE
  5
105
330
1F
100
AcDbEntity
  8
0
  6
Continuous
 62
     7
100
AcDbLine
 10
-20.18270952585267
 20
99.69294004327392
 30
0.0
 11
-20.18270952585267
 21
99.49294004327392
 31
0.0
  0
LINE
  5
106
330
1F
100
AcDbEntity
  8
0
  6
Continuous
 62
     7
100
AcDbLine
 10
-22.73270952585268
 20
95.59294004327391
 30
0.0
 11
-22.73270952585268
 21
95.39294004327391
 31
0.0
  0
LINE
  5
107
330
1F
100
AcDbEntity
  8
0
  6
Continuous
 62
     7
100
AcDbLine
 10
-20.18270952585267
 20
99.49294004327392
 30
0.0
 11
-20.18270952585267
 21
95.59294004327391
 31
0.0
  0
LINE
  5
108
330
1F
100
AcDbEntity
  8
0
  6
Continuous
 62
     7
100
AcDbLine
 10
-17.33270952585271
 20
95.39294004327391
 30
0.0
 11
-17.33270952585271
 21
99.49294004327392
 31
0.0
  0
LINE
  5
109
330
1F
100
AcDbEntity
  8
0
  6
Continuous
 62
     7
100
AcDbLine
 10
-17.93270952585267
 20
95.59294004327391
 30
0.0
 11
-17.9327095258527
 21
99.49294004327392
 31
0.0
  0
LINE
  5
10A
330
1F
100
AcDbEntity
  8
0
  6
Continuous
 62
     7
100
AcDbLine
 10
-17.33270952585271
 20
95.39294004327391
 30
0.0
 11
-18.53270952585267
 21
95.39294004327391
 31
0.0
  0
LINE
  5
10B
330
1F
100
AcDbEntity
  8
0
  6
Continuous
 62
     7
100
AcDbLine
 10
-18.53270952585267
 20
93.39294004327391
 30
0.0
 11
-18.53270952585267
 21
95.19294004327392
 31
0.0
  0
LINE
  5
10C
330
1F
100
AcDbEntity
  8
0
  6
Continuous
 62
     7
100
AcDbLine
 10
-18.53270952585267
 20
95.19294004327392
 30
0.0
 11
-18.53270952585267
 21
95.39294004327391
 31
0.0
  0
LINE
  5
10D
330
1F
100
AcDbEntity
  8
0
  6
Continuous
 62
     7
100
AcDbLine
 10
-15.98270952585266
 20
95.39294004327391
 30
0.0
 11
-17.33270952585271
 21
95.39294004327391
 31
0.0
  0
LINE
  5
10E
330
1F
100
AcDbEntity
  8
0
  6
Continuous
 62
     7
100
AcDbLine
 10
-15.78270952585267
 20
95.19294004327392
 30
0.0
 11
-15.78270952585267
 21
93.39294004327391
 31
0.0
  0
LINE
  5
10F
330
1F
100
AcDbEntity
  8
0
  6
Continuous
 62
     7
100
AcDbLine
 10
-18.53270952585267
 20
95.39294004327391
 30
0.0
 11
-21.43270952585267
 21
95.39294004327391
 31
0.0
  0
LINE
  5
110
330
1F
100
AcDbEntity
  8
0
  6
Continuous
 62
     7
100
AcDbLine
 10
-20.18270952585267
 20
95.59294004327391
 30
0.0
 11
-20.18270952585267
 21
95.39294004327391
 31
0.0
  0
LINE
  5
111
330
1F
100
AcDbEntity
  8
0
  6
Continuous
 62
     7
100
AcDbLine
 10
-15.78270952585267
 20
93.39294004327391
 30
0.0
 11
-17.33270952585271
 21
93.39294004327391
 31
0.0
  0
LINE
  5
112
330
1F
100
AcDbEntity
  8
0
  6
Continuous
 62
     7
100
AcDbLine
 10
-18.53270952585267
 20
93.39294004327391
 30
0.0
 11
-18.78270952585267
 21
93.39294004327391
 31
0.0
  0
LINE
  5
113
330
1F
100
AcDbEntity
  8
0
  6
Continuous
 62
     7
100
AcDbLine
 10
-17.93270952585273
 20
93.39294004327391
 30
0.0
 11
-18.53270952585267
 21
93.39294004327391
 31
0.0
  0
LINE
  5
114
330
1F
100
AcDbEntity
  8
0
  6
Continuous
 62
     7
100
AcDbLine
 10
-17.33270952585271
 20
93.39294004327391
 30
0.0
 11
-17.93270952585273
 21
93.39294004327391
 31
0.0
  0
LINE
  5
115
330
1F
100
AcDbEntity
  8
0
  6
Continuous
 62
     7
100
AcDbLine
 10
-18.78270952585267
 20
93.39294004327391
 30
0.0
 11
-18.78270952585267
 21
84.39294004327391
 31
0.0
  0
LINE
  5
116
330
1F
100
AcDbEntity
  8
0
  6
Continuous
 62
     7
100
AcDbLine
 10
-22.73270952585268
 20
99.49294004327392
 30
0.0
 11
-22.73270952585268
 21
95.59294004327391
 31
0.0
  0
LINE
  5
117
330
1F
100
AcDbEntity
  8
0
  6
Continuous
 62
     7
100
AcDbLine
 10
-26.78270952585267
 20
84.39294004327391
 30
0.0
 11
-18.78270952585267
 21
84.39294004327391
 31
0.0
  0
LINE
  5
118
330
1F
100
AcDbEntity
  8
0
  6
Continuous
 62
     7
100
AcDbLine
 10
-21.43270952585267
 20
95.39294004327391
 30
0.0
 11
-22.73270952585268
 21
95.39294004327391
 31
0.0
  0
LINE
  5
119
330
1F
100
AcDbEntity
  8
0
  6
Continuous
 62
     7
100
AcDbLine
 10
-22.73270952585268
 20
95.39294004327391
 30
0.0
 11
-24.13270952585266
 21
95.39294004327391
 31
0.0
  0
LINE
  5
11A
330
1F
100
AcDbEntity
  8
0
  6
Continuous
 62
     7
100
AcDbLine
 10
-26.58270952585265
 20
95.39294004327391
 30
0.0
 11
-24.13270952585266
 21
95.39294004327391
 31
0.0
  0
LINE
  5
11B
330
1F
100
AcDbEntity
  8
0
  6
Continuous
 62
     7
100
AcDbLine
 10
-24.13270952585266
 20
95.19294004327392
 30
0.0
 11
-24.13270952585266
 21
95.39294004327391
 31
0.0
  0
LINE
  5
11C
330
1F
100
AcDbEntity
  8
0
  6
Continuous
 62
     7
100
AcDbLine
 10
-21.43270952585267
 20
95.19294004327392
 30
0.0
 11
-21.43270952585267
 21
95.39294004327391
 31
0.0
  0
LINE
  5
11D
330
1F
100
AcDbEntity
  8
0
  6
Continuous
 62
     7
100
AcDbLine
 10
-24.13270952585266
 20
95.19294004327392
 30
0.0
 11
-24.13270952585266
 21
93.39294004327391
 31
0.0
  0
LINE
  5
11E
330
1F
100
AcDbEntity
  8
0
  6
Continuous
 62
     7
100
AcDbLine
 10
-21.43270952585267
 20
95.19294004327392
 30
0.0
 11
-21.43270952585267
 21
93.39294004327391
 31
0.0
  0
LINE
  5
11F
330
1F
100
AcDbEntity
  8
0
  6
Continuous
 62
     7
100
AcDbLine
 10
-26.78270952585267
 20
95.19294004327391
 30
0.0
 11
-26.78270952585267
 21
93.39294004327391
 31
0.0
  0
LINE
  5
120
330
1F
100
AcDbEntity
  8
0
  6
Continuous
 62
     7
100
AcDbLine
 10
-26.78270952585267
 20
93.39294004327391
 30
0.0
 11
-26.78270952585267
 21
84.39294004327391
 31
0.0
  0
LINE
  5
121
330
1F
100
AcDbEntity
  8
0
  6
Continuous
 62
     7
100
AcDbLine
 10
-24.13270952585266
 20
87.39294004327391
 30
0.0
 11
-21.43270952585267
 21
87.39294004327391
 31
0.0
  0
LINE
  5
122
330
1F
100
AcDbEntity
  8
0
  6
Continuous
 62
     7
100
AcDbLine
 10
-24.13270952585266
 20
93.39294004327391
 30
0.0
 11
-22.73270952585268
 21
93.39294004327391
 31
0.0
  0
LINE
  5
123
330
1F
100
AcDbEntity
  8
0
  6
Continuous
 62
     7
100
AcDbLine
 10
-24.13270952585266
 20
93.39294004327391
 30
0.0
 11
-24.13270952585266
 21
87.39294004327391
 31
0.0
  0
LINE
  5
124
330
1F
100
AcDbEntity
  8
0
  6
Continuous
 62
     7
100
AcDbLine
 10
-22.53270952585267
 20
93.39294004327391
 30
0.0
 11
-21.43270952585267
 21
93.39294004327391
 31
0.0
  0
LINE
  5
125
330
1F
100
AcDbEntity
  8
0
  6
Continuous
 62
     7
100
AcDbLine
 10
-22.53270952585267
 20
93.39294004327391
 30
0.0
 11
-22.73270952585268
 21
93.39294004327391
 31
0.0
  0
LINE
  5
126
330
1F
100
AcDbEntity
  8
0
  6
Continuous
 62
     7
100
AcDbLine
 10
-21.43270952585267
 20
87.39294004327391
 30
0.0
 11
-21.43270952585267
 21
93.39294004327391
 31
0.0
  0
LINE
  5
127
330
1F
100
AcDbEntity
  8
0
  6
Continuous
 62
     7
100
AcDbLine
 10
-65.88270952585269
 20
28.67294004327386
 30
0.0
 11
-62.18270952585267
 21
28.67294004327386
 31
0.0
  0
LINE
  5
128
330
1F
100
AcDbEntity
  8
0
  6
Continuous
 62
     7
100
AcDbLine
 10
-53.7827095258527
 20
44.87294004327385
 30
0.0
 11
-53.7827095258527
 21
38.37294004327385
 31
0.0
  0
LINE
  5
129
330
1F
100
AcDbEntity
  8
0
  6
Continuous
 62
     7
100
AcDbLine
 10
-71.5327095258527
 20
47.62294004327385
 30
0.0
 11
-56.5327095258527
 21
47.62294004327385
 31
0.0
  0
LINE
  5
12A
102
{ACAD_REACTORS
330
32B
102
}
330
1F
100
AcDbEntity
  8
0
  6
Continuous
 62
     7
100
AcDbLine
 10
-71.5327095258527
 20
47.8729400432739
 30
0.0
 11
-56.5327095258527
 21
47.8729400432739
 31
0.0
  0
LINE
  5
12B
102
{ACAD_REACTORS
330
32B
102
}
330
1F
100
AcDbEntity
  8
0
  6
Continuous
 62
     7
100
AcDbLine
 10
-53.5327095258527
 20
44.8729400432739
 30
0.0
 11
-53.5327095258527
 21
29.8729400432739
 31
0.0
  0
LINE
  5
12C
330
1F
100
AcDbEntity
  8
0
  6
Continuous
 62
     7
100
AcDbLine
 10
-53.7827095258527
 20
38.12294004327385
 30
0.0
 11
-53.7827095258527
 21
38.37294004327385
 31
0.0
  0
LINE
  5
12D
330
1F
100
AcDbEntity
  8
0
  6
Continuous
 62
     7
100
AcDbLine
 10
-53.7827095258527
 20
35.37294004327385
 30
0.0
 11
-53.7827095258527
 21
38.12294004327385
 31
0.0
  0
LINE
  5
12E
330
1F
100
AcDbEntity
  8
0
  6
Continuous
 62
     7
100
AcDbLine
 10
-68.83270952585276
 20
26.87294004327385
 30
0.0
 11
-68.58270952585276
 21
27.12294004327385
 31
0.0
  0
LINE
  5
12F
102
{ACAD_REACTORS
330
32B
102
}
330
1F
100
AcDbEntity
  8
0
  6
Continuous
 62
     7
100
AcDbLine
 10
-68.83270952585276
 20
26.87294004327385
 30
0.0
 11
-71.5327095258527
 21
26.8729400432739
 31
0.0
  0
LINE
  5
130
330
1F
100
AcDbEntity
  8
0
  6
Continuous
 62
     7
100
AcDbLine
 10
-62.23270952585266
 20
34.07294004327385
 30
0.0
 11
-60.2827095258527
 21
34.07294004327385
 31
0.0
  0
LINE
  5
131
330
1F
100
AcDbEntity
  8
0
  6
Continuous
 62
     7
100
AcDbLine
 10
-60.2827095258527
 20
37.07294004327385
 30
0.0
 11
-63.2827095258527
 21
37.07294004327385
 31
0.0
  0
LINE
  5
132
330
1F
100
AcDbEntity
  8
0
  6
Continuous
 62
     7
100
AcDbLine
 10
-60.2827095258527
 20
34.07294004327385
 30
0.0
 11
-60.2827095258527
 21
37.07294004327385
 31
0.0
  0
LINE
  5
133
330
1F
100
AcDbEntity
  8
0
  6
Continuous
 62
     7
100
AcDbLine
 10
-67.78270952585267
 20
34.07294004327385
 30
0.0
 11
-65.83270952585268
 21
34.07294004327385
 31
0.0
  0
LINE
  5
134
330
1F
100
AcDbEntity
  8
0
  6
Continuous
 62
     7
100
AcDbLine
 10
-64.78270952585267
 20
37.07294004327385
 30
0.0
 11
-67.78270952585267
 21
37.07294004327385
 31
0.0
  0
LINE
  5
135
330
1F
100
AcDbEntity
  8
0
  6
Continuous
 62
     7
100
AcDbLine
 10
-67.78270952585267
 20
37.07294004327385
 30
0.0
 11
-67.78270952585267
 21
34.07294004327385
 31
0.0
  0
LINE
  5
136
330
1F
100
AcDbEntity
  8
0
  6
Continuous
 62
     7
100
AcDbLine
 10
-64.78270952585267
 20
34.07294004327385
 30
0.0
 11
-64.78270952585267
 21
37.07294004327385
 31
0.0
  0
LINE
  5
137
330
1F
100
AcDbEntity
  8
0
  6
Continuous
 62
     7
100
AcDbLine
 10
-63.2827095258527
 20
37.07294004327385
 30
0.0
 11
-63.2827095258527
 21
34.07294004327385
 31
0.0
  0
LINE
  5
138
330
1F
100
AcDbEntity
  8
0
  6
Continuous
 62
     7
100
AcDbLine
 10
-63.2827095258527
 20
34.07294004327385
 30
0.0
 11
-62.23270952585266
 21
34.07294004327385
 31
0.0
  0
LINE
  5
139
330
1F
100
AcDbEntity
  8
0
  6
Continuous
 62
     7
100
AcDbLine
 10
-65.83270952585268
 20
34.07294004327385
 30
0.0
 11
-64.78270952585267
 21
34.07294004327385
 31
0.0
  0
LINE
  5
13A
330
1F
100
AcDbEntity
  8
0
  6
Continuous
 62
     7
100
AcDbLine
 10
-54.6827095258527
 20
32.77294004327384
 30
0.0
 11
-54.68270952585267
 21
32.87294004327385
 31
0.0
  0
LINE
  5
13B
330
1F
100
AcDbEntity
  8
0
  6
Continuous
 62
     7
100
AcDbLine
 10
-54.68270952585267
 20
32.87294004327385
 30
0.0
 11
-54.68270952585267
 21
35.37294004327385
 31
0.0
  0
LINE
  5
13C
330
1F
100
AcDbEntity
  8
0
  6
Continuous
 62
     7
100
AcDbLine
 10
-54.68270952585267
 20
35.37294004327385
 30
0.0
 11
-54.6827095258527
 21
35.47294004327386
 31
0.0
  0
LINE
  5
13D
330
1F
100
AcDbEntity
  8
0
  6
Continuous
 62
     7
100
AcDbLine
 10
-53.7827095258527
 20
29.87294004327385
 30
0.0
 11
-53.7827095258527
 21
32.87294004327385
 31
0.0
  0
LINE
  5
13E
330
1F
100
AcDbEntity
  8
0
  6
Continuous
 62
     7
100
AcDbLine
 10
-53.7827095258527
 20
32.87294004327385
 30
0.0
 11
-53.7827095258527
 21
35.37294004327385
 31
0.0
  0
LINE
  5
13F
330
1F
100
AcDbEntity
  8
0
  6
Continuous
 62
     7
100
AcDbLine
 10
-74.2827095258527
 20
32.87294004327385
 30
0.0
 11
-74.28270952585267
 21
35.37294004327385
 31
0.0
  0
LINE
  5
140
330
1F
100
AcDbEntity
  8
0
  6
Continuous
 62
     7
100
AcDbLine
 10
-73.38270952585269
 20
35.47294004327386
 30
0.0
 11
-73.38270952585269
 21
35.37294004327385
 31
0.0
  0
LINE
  5
141
330
1F
100
AcDbEntity
  8
0
  6
Continuous
 62
     7
100
AcDbLine
 10
-73.38270952585269
 20
32.87294004327385
 30
0.0
 11
-73.38270952585269
 21
32.77294004327384
 31
0.0
  0
LINE
  5
142
330
1F
100
AcDbEntity
  8
0
  6
Continuous
 62
     7
100
AcDbLine
 10
-73.38270952585269
 20
32.87294004327385
 30
0.0
 11
-73.38270952585269
 21
35.37294004327385
 31
0.0
  0
LINE
  5
143
330
1F
100
AcDbEntity
  8
0
  6
Continuous
 62
     7
100
AcDbLine
 10
-73.38270952585269
 20
38.37294004327385
 30
0.0
 11
-73.38270952585269
 21
38.12294004327385
 31
0.0
  0
LINE
  5
144
330
1F
100
AcDbEntity
  8
0
  6
Continuous
 62
     7
100
AcDbLine
 10
-73.38270952585269
 20
38.37294004327385
 30
0.0
 11
-74.2827095258527
 21
38.37294004327385
 31
0.0
  0
LINE
  5
145
330
1F
100
AcDbEntity
  8
0
  6
Continuous
 62
     7
100
AcDbLine
 10
-74.2827095258527
 20
29.87294004327385
 30
0.0
 11
-74.2827095258527
 21
32.87294004327385
 31
0.0
  0
LINE
  5
146
330
1F
100
AcDbEntity
  8
0
  6
Continuous
 62
     7
100
AcDbLine
 10
-74.28270952585267
 20
35.37294004327385
 30
0.0
 11
-74.2827095258527
 21
38.12294004327385
 31
0.0
  0
LINE
  5
147
330
1F
100
AcDbEntity
  8
0
  6
Continuous
 62
     7
100
AcDbLine
 10
-74.2827095258527
 20
38.12294004327385
 30
0.0
 11
-74.2827095258527
 21
38.37294004327385
 31
0.0
  0
LINE
  5
148
102
{ACAD_REACTORS
330
32B
102
}
330
1F
100
AcDbEntity
  8
0
  6
Continuous
 62
     7
100
AcDbLine
 10
-74.5327095258527
 20
29.8729400432739
 30
0.0
 11
-74.5327095258527
 21
44.8729400432739
 31
0.0
  0
LINE
  5
149
330
1F
100
AcDbEntity
  8
0
  6
Continuous
 62
     7
100
AcDbLine
 10
-74.2827095258527
 20
38.37294004327385
 30
0.0
 11
-74.2827095258527
 21
44.87294004327385
 31
0.0
  0
LINE
  5
14A
330
1F
100
AcDbEntity
  8
0
  6
Continuous
 62
     7
100
AcDbLine
 10
-68.58270952585276
 20
27.12294004327385
 30
0.0
 11
-71.5327095258527
 21
27.12294004327385
 31
0.0
  0
LINE
  5
14B
330
1F
100
AcDbEntity
  8
0
  6
Continuous
 62
     7
100
AcDbLine
 10
-56.5327095258527
 20
27.12294004327385
 30
0.0
 11
-59.48270952585266
 21
27.12294004327384
 31
0.0
  0
LINE
  5
14C
330
1F
100
AcDbEntity
  8
0
  6
Continuous
 62
     7
100
AcDbLine
 10
-67.0327095258527
 20
28.6729400432739
 30
0.0
 11
-68.58270952585276
 21
27.12294004327385
 31
0.0
  0
LINE
  5
14D
102
{ACAD_REACTORS
330
32B
102
}
330
1F
100
AcDbEntity
  8
0
  6
Continuous
 62
     7
100
AcDbLine
 10
-68.83270952585276
 20
26.87294004327385
 30
0.0
 11
-66.23270952585241
 21
26.8729400432739
 31
0.0
  0
LINE
  5
14E
330
1F
100
AcDbEntity
  8
0
  6
Continuous
 62
     7
100
AcDbLine
 10
-65.93270952585267
 20
28.6729400432739
 30
0.0
 11
-67.0327095258527
 21
28.6729400432739
 31
0.0
  0
LINE
  5
14F
102
{ACAD_REACTORS
330
32B
102
}
330
1F
100
AcDbEntity
  8
0
  6
Continuous
 62
     7
100
AcDbLine
 10
-56.5327095258527
 20
26.8729400432739
 30
0.0
 11
-59.23270952585266
 21
26.87294004327385
 31
0.0
  0
LINE
  5
150
330
1F
100
AcDbEntity
  8
0
  6
Continuous
 62
     7
100
AcDbLine
 10
-59.48270952585266
 20
27.12294004327384
 30
0.0
 11
-61.0327095258527
 21
28.6729400432739
 31
0.0
  0
LINE
  5
151
330
1F
100
AcDbEntity
  8
0
  6
Continuous
 62
     7
100
AcDbLine
 10
-61.0327095258527
 20
28.6729400432739
 30
0.0
 11
-62.13270952585269
 21
28.6729400432739
 31
0.0
  0
LINE
  5
152
330
1F
100
AcDbEntity
  8
0
  6
Continuous
 62
     7
100
AcDbLine
 10
-65.93270952585267
 20
28.6729400432739
 30
0.0
 11
-62.13270952585269
 21
28.6729400432739
 31
0.0
  0
LINE
  5
153
330
1F
100
AcDbEntity
  8
0
  6
Continuous
 62
     7
100
AcDbLine
 10
-59.48270952585266
 20
27.12294004327384
 30
0.0
 11
-59.23270952585266
 21
26.87294004327385
 31
0.0
  0
LINE
  5
154
330
1F
100
AcDbEntity
  8
0
  6
Continuous
 62
     7
100
AcDbLine
 10
-59.78270952585267
 20
37.67294004327385
 30
0.0
 11
-57.28270952585267
 21
37.67294004327386
 31
0.0
  0
LINE
  5
155
330
1F
100
AcDbEntity
  8
0
  6
Continuous
 62
     7
100
AcDbLine
 10
-53.7827095258527
 20
35.47294004327386
 30
0.0
 11
-53.7827095258527
 21
38.12294004327385
 31
0.0
  0
LINE
  5
156
330
1F
100
AcDbEntity
  8
0
  6
Continuous
 62
     7
100
AcDbLine
 10
-70.7827095258527
 20
37.67294004327385
 30
0.0
 11
-68.28270952585267
 21
37.67294004327385
 31
0.0
  0
LINE
  5
157
330
1F
100
AcDbEntity
  8
0
  6
Continuous
 62
     7
100
AcDbLine
 10
-67.78270952585267
 20
34.07294004327385
 30
0.0
 11
-67.7827095258527
 21
31.52294004327384
 31
0.0
  0
LINE
  5
158
330
1F
100
AcDbEntity
  8
0
  6
Continuous
 62
     7
100
AcDbLine
 10
-60.28270952585267
 20
31.52294004327384
 30
0.0
 11
-60.2827095258527
 21
34.07294004327385
 31
0.0
  0
LINE
  5
159
330
1F
100
AcDbEntity
  8
0
  6
Continuous
 62
     7
100
AcDbLine
 10
-62.23270952585266
 20
34.07294004327385
 30
0.0
 11
-60.2827095258527
 21
34.07294004327385
 31
0.0
  0
LINE
  5
15A
330
1F
100
AcDbEntity
  8
0
  6
Continuous
 62
     7
100
AcDbLine
 10
-60.2827095258527
 20
34.07294004327385
 30
0.0
 11
-60.28270952585267
 21
37.17294004327385
 31
0.0
  0
LINE
  5
15B
330
1F
100
AcDbEntity
  8
0
  6
Continuous
 62
     7
100
AcDbLine
 10
-67.78270952585267
 20
34.07294004327385
 30
0.0
 11
-65.83270952585268
 21
34.07294004327385
 31
0.0
  0
LINE
  5
15C
330
1F
100
AcDbEntity
  8
0
  6
Continuous
 62
     7
100
AcDbLine
 10
-67.78270952585267
 20
37.17294004327385
 30
0.0
 11
-67.78270952585267
 21
34.07294004327385
 31
0.0
  0
LINE
  5
15D
330
1F
100
AcDbEntity
  8
0
  6
Continuous
 62
     7
100
AcDbLine
 10
-65.63270952585269
 20
33.87294004327385
 30
0.0
 11
-65.63270952585269
 21
33.4438773145037
 31
0.0
  0
LINE
  5
15E
330
1F
100
AcDbEntity
  8
0
  6
Continuous
 62
     7
100
AcDbLine
 10
-53.98270952585268
 20
35.47294004327386
 30
0.0
 11
-54.6827095258527
 21
35.47294004327386
 31
0.0
  0
LINE
  5
15F
330
1F
100
AcDbEntity
  8
0
  6
Continuous
 62
     7
100
AcDbLine
 10
-53.7827095258527
 20
35.47294004327386
 30
0.0
 11
-53.98270952585268
 21
35.47294004327386
 31
0.0
  0
LINE
  5
160
330
1F
100
AcDbEntity
  8
0
  6
Continuous
 62
     7
100
AcDbLine
 10
-54.6827095258527
 20
32.77294004327384
 30
0.0
 11
-53.98270952585268
 21
32.77294004327384
 31
0.0
  0
LINE
  5
161
330
1F
100
AcDbEntity
  8
0
  6
Continuous
 62
     7
100
AcDbLine
 10
-54.6827095258527
 20
32.77294004327384
 30
0.0
 11
-54.6827095258527
 21
35.47294004327386
 31
0.0
  0
LINE
  5
162
330
1F
100
AcDbEntity
  8
0
  6
Continuous
 62
     7
100
AcDbLine
 10
-53.7827095258527
 20
35.37294004327385
 30
0.0
 11
-53.7827095258527
 21
35.47294004327386
 31
0.0
  0
LINE
  5
163
330
1F
100
AcDbEntity
  8
0
  6
Continuous
 62
     7
100
AcDbLine
 10
-53.7827095258527
 20
32.77294004327384
 30
0.0
 11
-53.7827095258527
 21
32.87294004327385
 31
0.0
  0
LINE
  5
164
330
1F
100
AcDbEntity
  8
0
  6
Continuous
 62
     7
100
AcDbLine
 10
-53.7827095258527
 20
32.87294004327385
 30
0.0
 11
-53.7827095258527
 21
35.37294004327385
 31
0.0
  0
LINE
  5
165
330
1F
100
AcDbEntity
  8
0
  6
Continuous
 62
     7
100
AcDbLine
 10
-53.7827095258527
 20
32.77294004327384
 30
0.0
 11
-53.98270952585268
 21
32.77294004327384
 31
0.0
  0
LINE
  5
166
330
1F
100
AcDbEntity
  8
0
  6
Continuous
 62
     7
100
AcDbLine
 10
-53.7827095258527
 20
29.87294004327385
 30
0.0
 11
-53.7827095258527
 21
32.77294004327384
 31
0.0
  0
LINE
  5
167
330
1F
100
AcDbEntity
  8
0
  6
Continuous
 62
     7
100
AcDbLine
 10
-74.2827095258527
 20
38.12294004327385
 30
0.0
 11
-72.0287031052904
 21
38.12294004327385
 31
0.0
  0
LINE
  5
168
330
1F
100
AcDbEntity
  8
0
  6
Continuous
 62
     7
100
AcDbLine
 10
-74.2827095258527
 20
32.77294004327384
 30
0.0
 11
-74.08270952585268
 21
32.77294004327384
 31
0.0
  0
LINE
  5
169
330
1F
100
AcDbEntity
  8
0
  6
Continuous
 62
     7
100
AcDbLine
 10
-74.2827095258527
 20
32.87294004327385
 30
0.0
 11
-74.28270952585267
 21
35.37294004327385
 31
0.0
  0
LINE
  5
16A
330
1F
100
AcDbEntity
  8
0
  6
Continuous
 62
     7
100
AcDbLine
 10
-73.38270952585269
 20
35.47294004327386
 30
0.0
 11
-73.38270952585269
 21
32.77294004327384
 31
0.0
  0
LINE
  5
16B
330
1F
100
AcDbEntity
  8
0
  6
Continuous
 62
     7
100
AcDbLine
 10
-73.38270952585269
 20
35.47294004327386
 30
0.0
 11
-74.08270952585268
 21
35.47294004327386
 31
0.0
  0
LINE
  5
16C
330
1F
100
AcDbEntity
  8
0
  6
Continuous
 62
     7
100
AcDbLine
 10
-74.2827095258527
 20
35.47294004327386
 30
0.0
 11
-74.08270952585268
 21
35.47294004327386
 31
0.0
  0
LINE
  5
16D
330
1F
100
AcDbEntity
  8
0
  6
Continuous
 62
     7
100
AcDbLine
 10
-74.08270952585268
 20
32.77294004327384
 30
0.0
 11
-73.38270952585269
 21
32.77294004327384
 31
0.0
  0
LINE
  5
16E
330
1F
100
AcDbEntity
  8
0
  6
Continuous
 62
     7
100
AcDbLine
 10
-74.2827095258527
 20
32.77294004327384
 30
0.0
 11
-74.2827095258527
 21
32.87294004327385
 31
0.0
  0
LINE
  5
16F
330
1F
100
AcDbEntity
  8
0
  6
Continuous
 62
     7
100
AcDbLine
 10
-74.2827095258527
 20
29.87294004327385
 30
0.0
 11
-74.2827095258527
 21
32.77294004327384
 31
0.0
  0
LINE
  5
170
330
1F
100
AcDbEntity
  8
0
  6
Continuous
 62
     7
100
AcDbLine
 10
-74.28270952585267
 20
35.37294004327385
 30
0.0
 11
-74.2827095258527
 21
35.47294004327386
 31
0.0
  0
LINE
  5
171
330
1F
100
AcDbEntity
  8
0
  6
Continuous
 62
     7
100
AcDbLine
 10
-74.2827095258527
 20
35.47294004327386
 30
0.0
 11
-74.2827095258527
 21
38.12294004327385
 31
0.0
  0
LINE
  5
172
330
1F
100
AcDbEntity
  8
0
  6
Continuous
 62
     7
100
AcDbLine
 10
-68.58270952585276
 20
27.12294004327385
 30
0.0
 11
-71.5327095258527
 21
27.12294004327385
 31
0.0
  0
LINE
  5
173
330
1F
100
AcDbEntity
  8
0
  6
Continuous
 62
     7
100
AcDbLine
 10
-61.0327095258527
 20
29.27294004327384
 30
0.0
 11
-61.0327095258527
 21
28.6729400432739
 31
0.0
  0
LINE
  5
174
330
1F
100
AcDbEntity
  8
0
  6
Continuous
 62
     7
100
AcDbLine
 10
-67.0327095258527
 20
28.6729400432739
 30
0.0
 11
-67.0327095258527
 21
29.27294004327386
 31
0.0
  0
LINE
  5
175
330
1F
100
AcDbEntity
  8
0
  6
Continuous
 62
     7
100
AcDbLine
 10
-56.5327095258527
 20
27.12294004327385
 30
0.0
 11
-59.48270952585266
 21
27.12294004327384
 31
0.0
  0
LINE
  5
176
330
1F
100
AcDbEntity
  8
0
  6
Continuous
 62
     7
100
AcDbLine
 10
-68.38270952585277
 20
27.32294004327386
 30
0.0
 11
-68.58270952585276
 21
27.12294004327385
 31
0.0
  0
LINE
  5
177
330
1F
100
AcDbEntity
  8
0
  6
Continuous
 62
     7
100
AcDbLine
 10
-61.0327095258527
 20
28.6729400432739
 30
0.0
 11
-67.0327095258527
 21
28.6729400432739
 31
0.0
  0
LINE
  5
178
330
1F
100
AcDbEntity
  8
0
  6
Continuous
 62
     7
100
AcDbLine
 10
-59.48270952585266
 20
27.12294004327384
 30
0.0
 11
-59.68270952585264
 21
27.32294004327386
 31
0.0
  0
LINE
  5
179
330
1F
100
AcDbEntity
  8
0
  6
Continuous
 62
     7
100
AcDbLine
 10
-59.68270952585264
 20
27.32294004327386
 30
0.0
 11
-61.0327095258527
 21
28.6729400432739
 31
0.0
  0
LINE
  5
17A
330
1F
100
AcDbEntity
  8
0
  6
Continuous
 62
     7
100
AcDbLine
 10
-67.0327095258527
 20
28.6729400432739
 30
0.0
 11
-68.38270952585277
 21
27.32294004327386
 31
0.0
  0
LINE
  5
17B
330
1F
100
AcDbEntity
  8
0
  6
Continuous
 62
     7
100
AcDbLine
 10
-60.28270952585267
 20
123.4729400432739
 30
0.0
 11
-60.28270952585267
 21
126.472940043274
 31
0.0
  0
LINE
  5
17C
330
1F
100
AcDbEntity
  8
0
  6
Continuous
 62
     7
100
AcDbLine
 10
-60.28270952585267
 20
126.472940043274
 30
0.0
 11
-62.23270952585266
 21
126.4729400432739
 31
0.0
  0
LINE
  5
17D
330
1F
100
AcDbEntity
  8
0
  6
Continuous
 62
     7
100
AcDbLine
 10
-65.83270952585268
 20
126.4729400432739
 30
0.0
 11
-67.78270952585267
 21
126.472940043274
 31
0.0
  0
LINE
  5
17E
330
1F
100
AcDbEntity
  8
0
  6
Continuous
 62
     7
100
AcDbLine
 10
-67.78270952585267
 20
126.472940043274
 30
0.0
 11
-67.78270952585267
 21
123.4729400432739
 31
0.0
  0
LINE
  5
17F
102
{ACAD_REACTORS
330
332
102
}
330
1F
100
AcDbEntity
  8
0
  6
Continuous
 62
     7
100
AcDbLine
 10
-53.5327095258527
 20
115.6729400432739
 30
0.0
 11
-53.5327095258527
 21
130.6729400432739
 31
0.0
  0
LINE
  5
180
330
1F
100
AcDbEntity
  8
0
  6
Continuous
 62
     7
100
AcDbLine
 10
-54.9327095258527
 20
115.8729400432739
 30
0.0
 11
-54.9327095258527
 21
130.4729400432739
 31
0.0
  0
LINE
  5
181
330
1F
100
AcDbEntity
  8
0
  6
Continuous
 62
     7
100
AcDbLine
 10
-57.2827095258527
 20
123.0729400432739
 30
0.0
 11
-54.9327095258527
 21
123.0729400432739
 31
0.0
  0
LINE
  5
182
330
1F
100
AcDbEntity
  8
0
  6
Continuous
 62
     7
100
AcDbLine
 10
-54.9327095258527
 20
118.7729400432739
 30
0.0
 11
-57.2827095258527
 21
118.7729400432739
 31
0.0
  0
LINE
  5
183
330
1F
100
AcDbEntity
  8
0
  6
Continuous
 62
     7
100
AcDbLine
 10
-54.9327095258527
 20
127.7729400432739
 30
0.0
 11
-57.2827095258527
 21
127.7729400432739
 31
0.0
  0
LINE
  5
184
330
1F
100
AcDbEntity
  8
0
  6
Continuous
 62
     7
100
AcDbLine
 10
-56.73270952585268
 20
132.2729400432739
 30
0.0
 11
-60.08270952585268
 21
132.2729400432739
 31
0.0
  0
LINE
  5
185
330
1F
100
AcDbEntity
  8
0
  6
Continuous
 62
     7
100
AcDbLine
 10
-60.28270952585267
 20
123.4729400432739
 30
0.0
 11
-60.28270952585267
 21
126.472940043274
 31
0.0
  0
LINE
  5
186
330
1F
100
AcDbEntity
  8
0
  6
Continuous
 62
     7
100
AcDbLine
 10
-67.98270952585268
 20
131.0729400432739
 30
0.0
 11
-67.98270952585268
 21
132.2729400432739
 31
0.0
  0
LINE
  5
187
330
1F
100
AcDbEntity
  8
0
  6
Continuous
 62
     7
100
AcDbLine
 10
-66.28270952585267
 20
132.2729400432739
 30
0.0
 11
-66.28270952585267
 21
131.0729400432739
 31
0.0
  0
LINE
  5
188
330
1F
100
AcDbEntity
  8
0
  6
Continuous
 62
     7
100
AcDbLine
 10
-68.43270952585267
 20
129.9229400432739
 30
0.0
 11
-68.43270952585267
 21
132.2729400432739
 31
0.0
  0
LINE
  5
189
102
{ACAD_REACTORS
330
332
102
}
330
1F
100
AcDbEntity
  8
0
  6
Continuous
 62
     7
100
AcDbLine
 10
-71.5327095258527
 20
133.6729400432739
 30
0.0
 11
-56.5327095258527
 21
133.6729400432739
 31
0.0
  0
LINE
  5
18A
330
1F
100
AcDbEntity
  8
0
  6
Continuous
 62
     7
100
AcDbLine
 10
-67.98270952585268
 20
132.2729400432739
 30
0.0
 11
-71.33270952585268
 21
132.2729400432739
 31
0.0
  0
LINE
  5
18B
330
1F
100
AcDbEntity
  8
0
  6
Continuous
 62
     7
100
AcDbLine
 10
-61.7827095258527
 20
132.2729400432739
 30
0.0
 11
-66.28270952585267
 21
132.2729400432739
 31
0.0
  0
LINE
  5
18C
330
1F
100
AcDbEntity
  8
0
  6
Continuous
 62
     7
100
AcDbLine
 10
-71.33270952585268
 20
114.0729400432739
 30
0.0
 11
-56.73270952585268
 21
114.0729400432739
 31
0.0
  0
LINE
  5
18D
330
1F
100
AcDbEntity
  8
0
  6
Continuous
 62
     7
100
AcDbLine
 10
-63.9327095258527
 20
116.4229400432739
 30
0.0
 11
-63.93270952585273
 21
114.0729400432739
 31
0.0
  0
LINE
  5
18E
330
1F
100
AcDbEntity
  8
0
  6
Continuous
 62
     7
100
AcDbLine
 10
-59.63270952585269
 20
114.0729400432739
 30
0.0
 11
-59.63270952585269
 21
116.4229400432739
 31
0.0
  0
LINE
  5
18F
330
1F
100
AcDbEntity
  8
0
  6
Continuous
 62
     7
100
AcDbLine
 10
-68.63270952585272
 20
114.0729400432739
 30
0.0
 11
-68.63270952585275
 21
116.4229400432739
 31
0.0
  0
LINE
  5
190
330
1F
100
AcDbEntity
  8
0
  6
Continuous
 62
     7
100
AcDbLine
 10
-60.28270952585267
 20
126.472940043274
 30
0.0
 11
-63.28270952585267
 21
126.472940043274
 31
0.0
  0
LINE
  5
191
330
1F
100
AcDbEntity
  8
0
  6
Continuous
 62
     7
100
AcDbLine
 10
-59.4327095258527
 20
129.9229400432739
 30
0.0
 11
-59.4327095258527
 21
132.2729400432739
 31
0.0
  0
LINE
  5
192
330
1F
100
AcDbEntity
  8
0
  6
Continuous
 62
     7
100
AcDbLine
 10
-61.7827095258527
 20
131.0729400432739
 30
0.0
 11
-61.7827095258527
 21
132.2729400432739
 31
0.0
  0
LINE
  5
193
330
1F
100
AcDbEntity
  8
0
  6
Continuous
 62
     7
100
AcDbLine
 10
-60.08270952585268
 20
132.2729400432739
 30
0.0
 11
-60.08270952585268
 21
131.0729400432739
 31
0.0
  0
LINE
  5
194
330
1F
100
AcDbEntity
  8
0
  6
Continuous
 62
     7
100
AcDbLine
 10
-60.08270952585268
 20
131.0729400432739
 30
0.0
 11
-61.7827095258527
 21
131.0729400432739
 31
0.0
  0
LINE
  5
195
102
{ACAD_REACTORS
330
332
102
}
330
1F
100
AcDbEntity
  8
0
  6
Continuous
 62
     7
100
AcDbLine
 10
-71.53270952585267
 20
112.6729400432739
 30
0.0
 11
-56.5327095258527
 21
112.6729400432739
 31
0.0
  0
LINE
  5
196
330
1F
100
AcDbEntity
  8
0
  6
Continuous
 62
     7
100
AcDbLine
 10
-63.28270952585267
 20
123.4729400432739
 30
0.0
 11
-60.28270952585267
 21
123.4729400432739
 31
0.0
  0
LINE
  5
197
102
{ACAD_REACTORS
330
332
102
}
330
1F
100
AcDbEntity
  8
0
  6
Continuous
 62
     7
100
AcDbLine
 10
-74.5327095258527
 20
130.6729400432739
 30
0.0
 11
-74.5327095258527
 21
115.6729400432739
 31
0.0
  0
LINE
  5
198
330
1F
100
AcDbEntity
  8
0
  6
Continuous
 62
     7
100
AcDbLine
 10
-73.13270952585269
 20
130.4729400432739
 30
0.0
 11
-73.13270952585269
 21
115.8729400432739
 31
0.0
  0
LINE
  5
199
330
1F
100
AcDbEntity
  8
0
  6
Continuous
 62
     7
100
AcDbLine
 10
-70.7827095258527
 20
127.5729400432739
 30
0.0
 11
-73.13270952585269
 21
127.5729400432739
 31
0.0
  0
LINE
  5
19A
330
1F
100
AcDbEntity
  8
0
  6
Continuous
 62
     7
100
AcDbLine
 10
-70.78270952585255
 20
118.5729400432739
 30
0.0
 11
-73.13270952585269
 21
118.5729400432739
 31
0.0
  0
LINE
  5
19B
330
1F
100
AcDbEntity
  8
0
  6
Continuous
 62
     7
100
AcDbLine
 10
-73.13270952585269
 20
123.2729400432739
 30
0.0
 11
-70.78270952585255
 21
123.2729400432739
 31
0.0
  0
LINE
  5
19C
330
1F
100
AcDbEntity
  8
0
  6
Continuous
 62
     7
100
AcDbLine
 10
-64.78270952585267
 20
123.4729400432739
 30
0.0
 11
-64.78270952585267
 21
126.472940043274
 31
0.0
  0
LINE
  5
19D
330
1F
100
AcDbEntity
  8
0
  6
Continuous
 62
     7
100
AcDbLine
 10
-64.78270952585267
 20
126.472940043274
 30
0.0
 11
-67.78270952585267
 21
126.472940043274
 31
0.0
  0
LINE
  5
19E
330
1F
100
AcDbEntity
  8
0
  6
Continuous
 62
     7
100
AcDbLine
 10
-67.78270952585267
 20
126.472940043274
 30
0.0
 11
-67.78270952585267
 21
123.4729400432739
 31
0.0
  0
LINE
  5
19F
330
1F
100
AcDbEntity
  8
0
  6
Continuous
 62
     7
100
AcDbLine
 10
-63.28270952585267
 20
126.472940043274
 30
0.0
 11
-63.28270952585267
 21
123.4729400432739
 31
0.0
  0
LINE
  5
1A0
330
1F
100
AcDbEntity
  8
0
  6
Continuous
 62
     7
100
AcDbLine
 10
-67.78270952585267
 20
123.4729400432739
 30
0.0
 11
-64.78270952585267
 21
123.4729400432739
 31
0.0
  0
LINE
  5
1A1
330
1F
100
AcDbEntity
  8
0
  6
Continuous
 62
     7
100
AcDbLine
 10
-66.28270952585267
 20
131.0729400432739
 30
0.0
 11
-67.98270952585268
 21
131.0729400432739
 31
0.0
  0
LINE
  5
1A2
330
1F
100
AcDbEntity
  8
0
  6
Continuous
 62
     7
100
AcDbLine
 10
-53.12770952585269
 20
65.7429400432739
 30
0.0
 11
-56.5327095258527
 21
65.7429400432739
 31
0.0
  0
LINE
  5
1A3
330
1F
100
AcDbEntity
  8
0
  6
Continuous
 62
     7
100
AcDbLine
 10
-71.5327095258527
 20
65.7429400432739
 30
0.0
 11
-56.5327095258527
 21
65.7429400432739
 31
0.0
  0
LINE
  5
1A4
330
1F
100
AcDbEntity
  8
0
  6
Continuous
 62
     7
100
AcDbLine
 10
-71.5327095258527
 20
65.7429400432739
 30
0.0
 11
-74.9377095258527
 21
65.7429400432739
 31
0.0
  0
LINE
  5
1A5
330
1F
100
AcDbEntity
  8
0
  6
Continuous
 62
     7
100
AcDbLine
 10
-62.5630156801828
 20
76.39294004327391
 30
0.0
 11
-62.18270952585267
 21
76.39294004327391
 31
0.0
  0
LINE
  5
1A6
330
1F
100
AcDbEntity
  8
0
  6
Continuous
 62
     7
100
AcDbLine
 10
-64.83270952585268
 20
75.89294004327391
 30
0.0
 11
-63.23270952585268
 21
75.89294004327391
 31
0.0
  0
LINE
  5
1A7
330
1F
100
AcDbEntity
  8
0
  6
Continuous
 62
     7
100
AcDbLine
 10
-65.88270952585269
 20
76.39294004327391
 30
0.0
 11
-65.50240337152259
 21
76.39294004327391
 31
0.0
  0
LINE
  5
1A8
330
1F
100
AcDbEntity
  8
0
  6
Continuous
 62
     7
100
AcDbLine
 10
-61.0327095258527
 20
93.39294004327391
 30
0.0
 11
-62.13270952585269
 21
93.39294004327391
 31
0.0
  0
LINE
  5
1A9
330
1F
100
AcDbEntity
  8
0
  6
Continuous
 62
     7
100
AcDbLine
 10
-68.58270952585276
 20
93.39294004327391
 30
0.0
 11
-71.5327095258527
 21
93.39294004327391
 31
0.0
  0
LINE
  5
1AA
330
1F
100
AcDbEntity
  8
0
  6
Continuous
 62
     7
100
AcDbLine
 10
-65.93270952585267
 20
93.39294004327391
 30
0.0
 11
-67.0327095258527
 21
93.39294004327391
 31
0.0
  0
LINE
  5
1AB
330
1F
100
AcDbEntity
  8
0
  6
Continuous
 62
     7
100
AcDbLine
 10
-67.0327095258527
 20
93.39294004327391
 30
0.0
 11
-68.58270952585276
 21
93.39294004327391
 31
0.0
  0
LINE
  5
1AC
330
1F
100
AcDbEntity
  8
0
  6
Continuous
 62
     7
100
AcDbLine
 10
-54.68270952585267
 20
93.39294004327391
 30
0.0
 11
-56.5327095258527
 21
93.39294004327391
 31
0.0
  0
LINE
  5
1AD
330
1F
100
AcDbEntity
  8
0
  6
Continuous
 62
     7
100
AcDbLine
 10
-53.53270952585267
 20
61.89294004327391
 30
0.0
 11
-53.53270952585267
 21
65.7429400432739
 31
0.0
  0
LINE
  5
1AE
330
1F
100
AcDbEntity
  8
0
  6
Continuous
 62
     7
100
AcDbLine
 10
-56.5327095258527
 20
61.89294004327391
 30
0.0
 11
-53.53270952585267
 21
61.89294004327391
 31
0.0
  0
LINE
  5
1AF
330
1F
100
AcDbEntity
  8
0
  6
Continuous
 62
     7
100
AcDbLine
 10
-53.7827095258527
 20
93.39294004327391
 30
0.0
 11
-53.7827095258527
 21
84.19294004327392
 31
0.0
  0
LINE
  5
1B0
330
1F
100
AcDbEntity
  8
0
  6
Continuous
 62
     7
100
AcDbLine
 10
-53.7827095258527
 20
93.39294004327391
 30
0.0
 11
-54.68270952585267
 21
93.39294004327391
 31
0.0
  0
LINE
  5
1B1
330
1F
100
AcDbEntity
  8
0
  6
Continuous
 62
     7
100
AcDbLine
 10
-53.53270952585267
 20
68.0429400432739
 30
0.0
 11
-53.53270952585267
 21
81.19294004327392
 31
0.0
  0
LINE
  5
1B2
330
1F
100
AcDbEntity
  8
0
  6
Continuous
 62
     7
100
AcDbLine
 10
-56.5327095258527
 20
61.89294004327391
 30
0.0
 11
-71.5327095258527
 21
61.89294004327391
 31
0.0
  0
LINE
  5
1B3
330
1F
100
AcDbEntity
  8
0
  6
Continuous
 62
     7
100
AcDbLine
 10
-56.5327095258527
 20
68.0429400432739
 30
0.0
 11
-56.5327095258527
 21
81.19294004327392
 31
0.0
  0
LINE
  5
1B4
330
1F
100
AcDbEntity
  8
0
  6
Continuous
 62
     7
100
AcDbLine
 10
-62.5630156801828
 20
76.39294004327391
 30
0.0
 11
-62.13270952585269
 21
76.39294004327391
 31
0.0
  0
LINE
  5
1B5
330
1F
100
AcDbEntity
  8
0
  6
Continuous
 62
     7
100
AcDbLine
 10
-67.0327095258527
 20
75.8929400432739
 30
0.0
 11
-61.0327095258527
 21
75.89294004327391
 31
0.0
  0
LINE
  5
1B6
330
1F
100
AcDbEntity
  8
0
  6
Continuous
 62
     7
100
AcDbLine
 10
-61.0327095258527
 20
75.89294004327391
 30
0.0
 11
-59.23270952585266
 21
74.09294004327386
 31
0.0
  0
LINE
  5
1B7
330
1F
100
AcDbEntity
  8
0
  6
Continuous
 62
     7
100
AcDbLine
 10
-68.83270952585276
 20
81.19294004327392
 30
0.0
 11
-71.5327095258527
 21
81.19294004327392
 31
0.0
  0
LINE
  5
1B8
330
1F
100
AcDbEntity
  8
0
  6
Continuous
 62
     7
100
AcDbLine
 10
-68.83270952585276
 20
81.19294004327392
 30
0.0
 11
-68.58270952585276
 21
81.19294004327392
 31
0.0
  0
LINE
  5
1B9
330
1F
100
AcDbEntity
  8
0
  6
Continuous
 62
     7
100
AcDbLine
 10
-68.83270952585276
 20
81.19294004327392
 30
0.0
 11
-68.83270952585276
 21
74.09294004327384
 31
0.0
  0
LINE
  5
1BA
330
1F
100
AcDbEntity
  8
0
  6
Continuous
 62
     7
100
AcDbLine
 10
-65.93270952585267
 20
76.39294004327391
 30
0.0
 11
-65.93270952585267
 21
76.83624366315362
 31
0.0
  0
LINE
  5
1BB
330
1F
100
AcDbEntity
  8
0
  6
Continuous
 62
     7
100
AcDbLine
 10
-65.93270952585267
 20
76.39294004327391
 30
0.0
 11
-65.50240337152259
 21
76.39294004327391
 31
0.0
  0
LINE
  5
1BC
330
1F
100
AcDbEntity
  8
0
  6
Continuous
 62
     7
100
AcDbLine
 10
-65.93270952585267
 20
93.39294004327391
 30
0.0
 11
-65.88270952585269
 21
93.39294004327391
 31
0.0
  0
LINE
  5
1BD
330
1F
100
AcDbEntity
  8
0
  6
Continuous
 62
     7
100
AcDbLine
 10
-65.93270952585267
 20
80.94963642339425
 30
0.0
 11
-65.93270952585267
 21
93.39294004327391
 31
0.0
  0
LINE
  5
1BE
330
1F
100
AcDbEntity
  8
0
  6
Continuous
 62
     7
100
AcDbLine
 10
-74.2827095258527
 20
84.19294004327392
 30
0.0
 11
-74.2827095258527
 21
81.19294004327392
 31
0.0
  0
LINE
  5
1BF
330
1F
100
AcDbEntity
  8
0
  6
Continuous
 62
     7
100
AcDbLine
 10
-71.5327095258527
 20
93.39294004327391
 30
0.0
 11
-71.5327095258527
 21
81.19294004327392
 31
0.0
  0
LINE
  5
1C0
330
1F
100
AcDbEntity
  8
0
  6
Continuous
 62
     7
100
AcDbLine
 10
-68.58270952585276
 20
93.39294004327391
 30
0.0
 11
-68.58270952585276
 21
81.19294004327392
 31
0.0
  0
LINE
  5
1C1
330
1F
100
AcDbEntity
  8
0
  6
Continuous
 62
     7
100
AcDbLine
 10
-71.5327095258527
 20
93.39294004327391
 30
0.0
 11
-73.38270952585269
 21
93.39294004327391
 31
0.0
  0
LINE
  5
1C2
330
1F
100
AcDbEntity
  8
0
  6
Continuous
 62
     7
100
AcDbLine
 10
-74.2827095258527
 20
84.19294004327392
 30
0.0
 11
-74.2827095258527
 21
93.39294004327391
 31
0.0
  0
LINE
  5
1C3
330
1F
100
AcDbEntity
  8
0
  6
Continuous
 62
     7
100
AcDbLine
 10
-73.38270952585269
 20
93.39294004327391
 30
0.0
 11
-74.2827095258527
 21
93.39294004327391
 31
0.0
  0
LINE
  5
1C4
330
1F
100
AcDbEntity
  8
0
  6
Continuous
 62
     7
100
AcDbLine
 10
-67.0327095258527
 20
75.8929400432739
 30
0.0
 11
-67.0327095258527
 21
93.39294004327391
 31
0.0
  0
LINE
  5
1C5
330
1F
100
AcDbEntity
  8
0
  6
Continuous
 62
     7
100
AcDbLine
 10
-62.18270952585267
 20
93.39294004327391
 30
0.0
 11
-62.13270952585269
 21
93.39294004327391
 31
0.0
  0
LINE
  5
1C6
330
1F
100
AcDbEntity
  8
0
  6
Continuous
 62
     7
100
AcDbLine
 10
-62.13270952585269
 20
76.83624366315362
 30
0.0
 11
-62.13270952585269
 21
76.39294004327391
 31
0.0
  0
LINE
  5
1C7
330
1F
100
AcDbEntity
  8
0
  6
Continuous
 62
     7
100
AcDbLine
 10
-62.13270952585269
 20
93.39294004327391
 30
0.0
 11
-62.13270952585269
 21
80.94963642339425
 31
0.0
  0
LINE
  5
1C8
330
1F
100
AcDbEntity
  8
0
  6
Continuous
 62
     7
100
AcDbLine
 10
-59.48270952585266
 20
93.39294004327391
 30
0.0
 11
-61.0327095258527
 21
93.39294004327391
 31
0.0
  0
LINE
  5
1C9
330
1F
100
AcDbEntity
  8
0
  6
Continuous
 62
     7
100
AcDbLine
 10
-61.0327095258527
 20
93.39294004327391
 30
0.0
 11
-61.0327095258527
 21
75.89294004327391
 31
0.0
  0
LINE
  5
1CA
330
1F
100
AcDbEntity
  8
0
  6
Continuous
 62
     7
100
AcDbLine
 10
-59.48270952585266
 20
81.19294004327392
 30
0.0
 11
-59.48270952585266
 21
93.39294004327391
 31
0.0
  0
LINE
  5
1CB
330
1F
100
AcDbEntity
  8
0
  6
Continuous
 62
     7
100
AcDbLine
 10
-56.5327095258527
 20
93.39294004327391
 30
0.0
 11
-59.48270952585266
 21
93.39294004327391
 31
0.0
  0
LINE
  5
1CC
330
1F
100
AcDbEntity
  8
0
  6
Continuous
 62
     7
100
AcDbLine
 10
-59.48270952585266
 20
81.19294004327392
 30
0.0
 11
-59.23270952585266
 21
81.19294004327392
 31
0.0
  0
LINE
  5
1CD
330
1F
100
AcDbEntity
  8
0
  6
Continuous
 62
     7
100
AcDbLine
 10
-53.7827095258527
 20
84.19294004327392
 30
0.0
 11
-53.7827095258527
 21
81.19294004327392
 31
0.0
  0
LINE
  5
1CE
330
1F
100
AcDbEntity
  8
0
  6
Continuous
 62
     7
100
AcDbLine
 10
-56.5327095258527
 20
93.39294004327391
 30
0.0
 11
-56.5327095258527
 21
81.19294004327392
 31
0.0
  0
LINE
  5
1CF
330
1F
100
AcDbEntity
  8
0
  6
Continuous
 62
     7
100
AcDbLine
 10
-56.5327095258527
 20
81.19294004327392
 30
0.0
 11
-59.23270952585266
 21
81.19294004327392
 31
0.0
  0
LINE
  5
1D0
330
1F
100
AcDbEntity
  8
0
  6
Continuous
 62
     7
100
AcDbLine
 10
-56.5327095258527
 20
81.19294004327392
 30
0.0
 11
-53.53270952585267
 21
81.19294004327392
 31
0.0
  0
LINE
  5
1D1
330
1F
100
AcDbEntity
  8
0
  6
Continuous
 62
     7
100
AcDbLine
 10
-59.23270952585266
 20
74.09294004327386
 30
0.0
 11
-59.23270952585266
 21
81.19294004327392
 31
0.0
  0
LINE
  5
1D2
330
1F
100
AcDbEntity
  8
0
  6
Continuous
 62
     7
100
AcDbLine
 10
-74.5327095258527
 20
61.89294004327391
 30
0.0
 11
-71.5327095258527
 21
61.89294004327391
 31
0.0
  0
LINE
  5
1D3
330
1F
100
AcDbEntity
  8
0
  6
Continuous
 62
     7
100
AcDbLine
 10
-74.53270952585267
 20
68.0429400432739
 30
0.0
 11
-74.53270952585267
 21
81.19294004327392
 31
0.0
  0
LINE
  5
1D4
330
1F
100
AcDbEntity
  8
0
  6
Continuous
 62
     7
100
AcDbLine
 10
-74.5327095258527
 20
61.89294004327391
 30
0.0
 11
-74.5327095258527
 21
65.7429400432739
 31
0.0
  0
LINE
  5
1D5
330
1F
100
AcDbEntity
  8
0
  6
Continuous
 62
     7
100
AcDbLine
 10
-71.5327095258527
 20
68.0429400432739
 30
0.0
 11
-71.5327095258527
 21
81.19294004327392
 31
0.0
  0
LINE
  5
1D6
330
1F
100
AcDbEntity
  8
0
  6
Continuous
 62
     7
100
AcDbLine
 10
-67.0327095258527
 20
75.8929400432739
 30
0.0
 11
-68.83270952585276
 21
74.09294004327384
 31
0.0
  0
LINE
  5
1D7
330
1F
100
AcDbEntity
  8
0
  6
Continuous
 62
     7
100
AcDbLine
 10
-71.5327095258527
 20
61.89294004327391
 30
0.0
 11
-71.5327095258527
 21
65.7429400432739
 31
0.0
  0
LINE
  5
1D8
330
1F
100
AcDbEntity
  8
0
  6
Continuous
 62
     7
100
AcDbLine
 10
-68.83270952585276
 20
74.09294004327384
 30
0.0
 11
-59.23270952585266
 21
74.09294004327386
 31
0.0
  0
LINE
  5
1D9
330
1F
100
AcDbEntity
  8
0
  6
Continuous
 62
     7
100
AcDbLine
 10
-74.53270952585267
 20
81.19294004327392
 30
0.0
 11
-71.5327095258527
 21
81.19294004327392
 31
0.0
  0
LINE
  5
1DA
330
1F
100
AcDbEntity
  8
0
  6
Continuous
 62
     7
100
AcDbLine
 10
-66.5327095258527
 20
102.6929400432739
 30
0.0
 11
-61.5327095258527
 21
102.6929400432739
 31
0.0
  0
LINE
  5
1DB
330
1F
100
AcDbEntity
  8
0
  6
Continuous
 62
     7
100
AcDbLine
 10
-61.5327095258527
 20
99.69294004327392
 30
0.0
 11
-61.5327095258527
 21
102.6929400432739
 31
0.0
  0
LINE
  5
1DC
330
1F
100
AcDbEntity
  8
0
  6
Continuous
 62
     7
100
AcDbLine
 10
-66.5327095258527
 20
99.69294004327392
 30
0.0
 11
-66.5327095258527
 21
102.6929400432739
 31
0.0
  0
LINE
  5
1DD
330
1F
100
AcDbEntity
  8
0
  6
Continuous
 62
     7
100
AcDbLine
 10
-61.23270952585271
 20
99.69294004327392
 30
0.0
 11
-66.83270952585268
 21
99.69294004327392
 31
0.0
  0
LINE
  5
1DE
330
1F
100
AcDbEntity
  8
0
  6
Continuous
 62
     7
100
AcDbLine
 10
-61.23270952585271
 20
99.69294004327392
 30
0.0
 11
-60.48270952585268
 21
99.69294004327392
 31
0.0
  0
LINE
  5
1DF
330
1F
100
AcDbEntity
  8
0
  6
Continuous
 62
     7
100
AcDbLine
 10
-67.58270952585268
 20
99.69294004327392
 30
0.0
 11
-66.83270952585268
 21
99.69294004327392
 31
0.0
  0
LINE
  5
1E0
330
1F
100
AcDbEntity
  8
0
  6
Continuous
 62
     7
100
AcDbLine
 10
-67.7827095258527
 20
95.59294004327391
 30
0.0
 11
-67.7827095258527
 21
99.49294004327392
 31
0.0
  0
LINE
  5
1E1
330
1F
100
AcDbEntity
  8
0
  6
Continuous
 62
     7
100
AcDbLine
 10
-67.0327095258527
 20
95.39294004327391
 30
0.0
 11
-67.0327095258527
 21
99.49294004327392
 31
0.0
  0
LINE
  5
1E2
330
1F
100
AcDbEntity
  8
0
  6
Continuous
 62
     7
100
AcDbLine
 10
-60.2827095258527
 20
95.59294004327391
 30
0.0
 11
-60.2827095258527
 21
99.49294004327392
 31
0.0
  0
LINE
  5
1E3
330
1F
100
AcDbEntity
  8
0
  6
Continuous
 62
     7
100
AcDbLine
 10
-61.0327095258527
 20
95.39294004327391
 30
0.0
 11
-61.0327095258527
 21
99.49294004327484
 31
0.0
  0
LINE
  5
1E4
330
1F
100
AcDbEntity
  8
0
  6
Continuous
 62
     7
100
AcDbLine
 10
-71.5327095258527
 20
95.19294004327392
 30
0.0
 11
-71.5327095258527
 21
95.39294004327391
 31
0.0
  0
LINE
  5
1E5
330
1F
100
AcDbEntity
  8
0
  6
Continuous
 62
     7
100
AcDbLine
 10
-71.5327095258527
 20
93.39294004327391
 30
0.0
 11
-71.5327095258527
 21
95.19294004327392
 31
0.0
  0
LINE
  5
1E6
330
1F
100
AcDbEntity
  8
0
  6
Continuous
 62
     7
100
AcDbLine
 10
-68.38270952585277
 20
95.39294004327391
 30
0.0
 11
-67.0327095258527
 21
95.39294004327391
 31
0.0
  0
LINE
  5
1E7
330
1F
100
AcDbEntity
  8
0
  6
Continuous
 62
     7
100
AcDbLine
 10
-68.38270952585277
 20
95.39294004327391
 30
0.0
 11
-71.5327095258527
 21
95.39294004327391
 31
0.0
  0
LINE
  5
1E8
330
1F
100
AcDbEntity
  8
0
  6
Continuous
 62
     7
100
AcDbLine
 10
-61.0327095258527
 20
95.39294004327391
 30
0.0
 11
-61.0327095258527
 21
93.39294004327391
 31
0.0
  0
LINE
  5
1E9
330
1F
100
AcDbEntity
  8
0
  6
Continuous
 62
     7
100
AcDbLine
 10
-68.58270952585276
 20
95.19294004327392
 30
0.0
 11
-68.58270952585276
 21
93.39294004327391
 31
0.0
  0
LINE
  5
1EA
330
1F
100
AcDbEntity
  8
0
  6
Continuous
 62
     7
100
AcDbLine
 10
-67.0327095258527
 20
93.39294004327391
 30
0.0
 11
-67.0327095258527
 21
95.39294004327391
 31
0.0
  0
LINE
  5
1EB
330
1F
100
AcDbEntity
  8
0
  6
Continuous
 62
     7
100
AcDbLine
 10
-61.0327095258527
 20
93.39294004327391
 30
0.0
 11
-62.0327095258527
 21
93.39294004327391
 31
0.0
  0
LINE
  5
1EC
330
1F
100
AcDbEntity
  8
0
  6
Continuous
 62
     7
100
AcDbLine
 10
-65.88270952585269
 20
93.39294004327391
 30
0.0
 11
-62.18270952585267
 21
93.39294004327391
 31
0.0
  0
LINE
  5
1ED
330
1F
100
AcDbEntity
  8
0
  6
Continuous
 62
     7
100
AcDbLine
 10
-68.58270952585276
 20
93.39294004327391
 30
0.0
 11
-71.5327095258527
 21
93.39294004327391
 31
0.0
  0
LINE
  5
1EE
330
1F
100
AcDbEntity
  8
0
  6
Continuous
 62
     7
100
AcDbLine
 10
-66.0327095258527
 20
93.39294004327391
 30
0.0
 11
-67.0327095258527
 21
93.39294004327391
 31
0.0
  0
LINE
  5
1EF
330
1F
100
AcDbEntity
  8
0
  6
Continuous
 62
     7
100
AcDbLine
 10
-67.0327095258527
 20
93.39294004327391
 30
0.0
 11
-68.58270952585276
 21
93.39294004327391
 31
0.0
  0
LINE
  5
1F0
330
1F
100
AcDbEntity
  8
0
  6
Continuous
 62
     7
100
AcDbLine
 10
-56.5327095258527
 20
95.19294004327392
 30
0.0
 11
-56.5327095258527
 21
95.39294004327391
 31
0.0
  0
LINE
  5
1F1
330
1F
100
AcDbEntity
  8
0
  6
Continuous
 62
     7
100
AcDbLine
 10
-53.98270952585268
 20
95.39294004327391
 30
0.0
 11
-56.5327095258527
 21
95.39294004327391
 31
0.0
  0
LINE
  5
1F2
330
1F
100
AcDbEntity
  8
0
  6
Continuous
 62
     7
100
AcDbLine
 10
-56.5327095258527
 20
93.39294004327391
 30
0.0
 11
-56.5327095258527
 21
95.19294004327392
 31
0.0
  0
LINE
  5
1F3
330
1F
100
AcDbEntity
  8
0
  6
Continuous
 62
     7
100
AcDbLine
 10
-53.7827095258527
 20
95.19294004327392
 30
0.0
 11
-53.7827095258527
 21
93.39294004327391
 31
0.0
  0
LINE
  5
1F4
330
1F
100
AcDbEntity
  8
0
  6
Continuous
 62
     7
100
AcDbLine
 10
-53.7827095258527
 20
93.39294004327391
 30
0.0
 11
-56.5327095258527
 21
93.39294004327391
 31
0.0
  0
LINE
  5
1F5
330
1F
100
AcDbEntity
  8
0
  6
Continuous
 62
     7
100
AcDbLine
 10
-53.7827095258527
 20
93.39294004327391
 30
0.0
 11
-53.7827095258527
 21
87.39294004327391
 31
0.0
  0
LINE
  5
1F6
330
1F
100
AcDbEntity
  8
0
  6
Continuous
 62
     7
100
AcDbLine
 10
-53.7827095258527
 20
87.39294004327391
 30
0.0
 11
-53.7827095258527
 21
84.39294004327391
 31
0.0
  0
LINE
  5
1F7
330
1F
100
AcDbEntity
  8
0
  6
Continuous
 62
     7
100
AcDbLine
 10
-74.2827095258527
 20
95.19294004327392
 30
0.0
 11
-74.2827095258527
 21
93.39294004327391
 31
0.0
  0
LINE
  5
1F8
330
1F
100
AcDbEntity
  8
0
  6
Continuous
 62
     7
100
AcDbLine
 10
-71.5327095258527
 20
95.39294004327391
 30
0.0
 11
-74.08270952585268
 21
95.39294004327391
 31
0.0
  0
LINE
  5
1F9
330
1F
100
AcDbEntity
  8
0
  6
Continuous
 62
     7
100
AcDbLine
 10
-66.0327095258527
 20
93.39294004327391
 30
0.0
 11
-65.88270952585269
 21
93.39294004327391
 31
0.0
  0
LINE
  5
1FA
330
1F
100
AcDbEntity
  8
0
  6
Continuous
 62
     7
100
AcDbLine
 10
-71.5327095258527
 20
93.39294004327391
 30
0.0
 11
-74.2827095258527
 21
93.39294004327391
 31
0.0
  0
LINE
  5
1FB
330
1F
100
AcDbEntity
  8
0
  6
Continuous
 62
     7
100
AcDbLine
 10
-74.2827095258527
 20
87.39294004327391
 30
0.0
 11
-74.2827095258527
 21
93.39294004327391
 31
0.0
  0
LINE
  5
1FC
330
1F
100
AcDbEntity
  8
0
  6
Continuous
 62
     7
100
AcDbLine
 10
-74.2827095258527
 20
84.39294004327391
 30
0.0
 11
-74.2827095258527
 21
87.39294004327391
 31
0.0
  0
LINE
  5
1FD
330
1F
100
AcDbEntity
  8
0
  6
Continuous
 62
     7
100
AcDbLine
 10
-61.0327095258527
 20
95.39294004327391
 30
0.0
 11
-59.68270952585264
 21
95.39294004327391
 31
0.0
  0
LINE
  5
1FE
330
1F
100
AcDbEntity
  8
0
  6
Continuous
 62
     7
100
AcDbLine
 10
-59.48270952585266
 20
93.39294004327391
 30
0.0
 11
-59.48270952585266
 21
95.19294004327392
 31
0.0
  0
LINE
  5
1FF
330
1F
100
AcDbEntity
  8
0
  6
Continuous
 62
     7
100
AcDbLine
 10
-56.5327095258527
 20
95.39294004327391
 30
0.0
 11
-59.68270952585264
 21
95.39294004327391
 31
0.0
  0
LINE
  5
200
330
1F
100
AcDbEntity
  8
0
  6
Continuous
 62
     7
100
AcDbLine
 10
-62.18270952585267
 20
93.39294004327391
 30
0.0
 11
-62.0327095258527
 21
93.39294004327391
 31
0.0
  0
LINE
  5
201
330
1F
100
AcDbEntity
  8
0
  6
Continuous
 62
     7
100
AcDbLine
 10
-59.48270952585266
 20
93.39294004327391
 30
0.0
 11
-61.0327095258527
 21
93.39294004327391
 31
0.0
  0
LINE
  5
202
330
1F
100
AcDbEntity
  8
0
  6
Continuous
 62
     7
100
AcDbLine
 10
-56.5327095258527
 20
93.39294004327391
 30
0.0
 11
-59.48270952585266
 21
93.39294004327391
 31
0.0
  0
LINE
  5
203
102
{ACAD_REACTORS
330
32B
102
}
330
1F
100
AcDbEntity
  8
0
  6
Continuous
 62
     7
100
AcDbLine
 10
-61.83270952585296
 20
26.8729400432739
 30
0.0
 11
-59.23270952585266
 21
26.87294004327385
 31
0.0
  0
LINE
  5
204
330
1F
100
AcDbEntity
  8
1
  6
Continuous
 62
     7
100
AcDbLine
 10
-65.7525779412098
 20
30.99185376604838
 30
0.0
 11
-62.71284111049565
 21
32.74684664352681
 31
0.0
  0
LINE
  5
205
330
1F
100
AcDbEntity
  8
1
  6
Continuous
 62
     7
100
AcDbLine
 10
-65.35257794120979
 20
30.29903344302083
 30
0.0
 11
-62.31284111049565
 21
32.05402632049926
 31
0.0
  0
LINE
  5
206
330
1F
100
AcDbEntity
  8
0
  6
Continuous
 62
     7
100
AcDbLine
 10
-56.5327095258527
 20
61.89294004327391
 30
0.0
 11
-56.5327095258527
 21
65.7429400432739
 31
0.0
  0
LINE
  5
207
330
1F
100
AcDbEntity
  8
0
  6
Continuous
 62
     7
100
AcDbLine
 10
-56.03671594641496
 20
38.12294004327385
 30
0.0
 11
-53.7827095258527
 21
38.12294004327385
 31
0.0
  0
LINE
  5
208
330
1F
100
AcDbEntity
  8
0
  6
Continuous
 62
     7
100
AcDbLine
 10
-62.43270952585267
 20
33.44387731450369
 30
0.0
 11
-62.43270952585267
 21
33.87294004327385
 31
0.0
  0
LINE
  5
209
330
1F
100
AcDbEntity
  8
1
  6
Continuous
 62
     4
100
AcDbLine
 10
-64.0327095258527
 20
131.0979400432738
 30
0.0
 11
-63.50369150108415
 21
131.0979400432738
 31
0.0
  0
LINE
  5
20A
330
1F
100
AcDbEntity
  8
1
  6
Continuous
 62
     4
100
AcDbLine
 10
-64.3777323806266
 20
130.8645796142698
 30
0.0
 11
-63.69037984428735
 21
130.8645796142698
 31
0.0
  0
LINE
  5
20B
330
1F
100
AcDbEntity
  8
1
  6
Continuous
 62
     4
100
AcDbLine
 10
-64.19104403742335
 20
130.6312191852658
 30
0.0
 11
-63.8770681874907
 21
130.6312191852658
 31
0.0
  0
LINE
  5
20C
330
1F
100
AcDbEntity
  8
1
  6
Continuous
 62
     4
100
AcDbLine
 10
-64.0327095258527
 20
131.0979400432738
 30
0.0
 11
-64.0327095258527
 21
131.59513619136
 31
0.0
  0
LINE
  5
20D
330
1F
100
AcDbEntity
  8
1
  6
Continuous
 62
     4
100
AcDbLine
 10
-64.56442072382985
 20
131.0979400432738
 30
0.0
 11
-64.0327095258527
 21
131.0979400432738
 31
0.0
  0
LINE
  5
20E
330
1F
100
AcDbEntity
  8
1
  6
Continuous
 62
     4
100
AcDbLine
 10
-60.6041198847888
 20
33.17279215999172
 30
0.0
 11
-61.1358310827659
 21
33.17279215999172
 31
0.0
  0
LINE
  5
20F
330
1F
100
AcDbEntity
  8
1
  6
Continuous
 62
     4
100
AcDbLine
 10
-61.1358310827659
 20
33.17279215999172
 30
0.0
 11
-61.1358310827659
 21
32.67559601190554
 31
0.0
  0
LINE
  5
210
330
1F
100
AcDbEntity
  8
1
  6
Continuous
 62
     4
100
AcDbLine
 10
-60.9774965711953
 20
33.63951301799976
 30
0.0
 11
-61.29147242112795
 21
33.63951301799976
 31
0.0
  0
LINE
  5
211
330
1F
100
AcDbEntity
  8
1
  6
Continuous
 62
     4
100
AcDbLine
 10
-60.79080822799205
 20
33.40615258899577
 30
0.0
 11
-61.47816076433125
 21
33.40615258899577
 31
0.0
  0
LINE
  5
212
330
1F
100
AcDbEntity
  8
1
  6
Continuous
 62
     4
100
AcDbLine
 10
-61.1358310827659
 20
33.17279215999172
 30
0.0
 11
-61.66484910753445
 21
33.17279215999172
 31
0.0
  0
LINE
  5
213
330
1F
100
AcDbEntity
  8
1
  6
Continuous
 62
     7
100
AcDbLine
 10
-94.5
 20
15.0
 30
0.0
 11
-2.5
 21
15.0
 31
0.0
  0
LINE
  5
214
102
{ACAD_REACTORS
330
32B
102
}
330
1F
100
AcDbEntity
  8
1
  6
Continuous
 62
     7
100
AcDbLine
 10
-56.0327095258527
 20
49.37294004327396
 30
0.0
 11
-72.03270952585281
 21
49.37294004327396
 31
0.0
  0
LINE
  5
215
102
{ACAD_REACTORS
330
32B
102
}
330
1F
100
AcDbEntity
  8
1
  6
Continuous
 62
     7
100
AcDbLine
 10
-52.0327095258527
 20
29.37294004327389
 30
0.0
 11
-52.0327095258527
 21
45.37294004327396
 31
0.0
  0
LINE
  5
216
102
{ACAD_REACTORS
330
32B
102
}
330
1F
100
AcDbEntity
  8
1
  6
Continuous
 62
     7
100
AcDbLine
 10
-72.0327095258527
 20
25.37294004327389
 30
0.0
 11
-65.51617393953683
 21
25.37294004327389
 31
0.0
  0
LINE
  5
217
102
{ACAD_REACTORS
330
32B
102
}
330
1F
100
AcDbEntity
  8
1
  6
Continuous
 62
     7
100
AcDbLine
 10
-76.03270952585281
 20
45.37294004327396
 30
0.0
 11
-76.0327095258527
 21
29.37294004327389
 31
0.0
  0
LINE
  5
218
102
{ACAD_REACTORS
330
332
102
}
330
1F
100
AcDbEntity
  8
1
  6
Continuous
 62
     7
100
AcDbLine
 10
-51.98270952585271
 20
115.172940043274
 30
0.0
 11
-51.98270952585266
 21
131.1729400432741
 31
0.0
  0
LINE
  5
219
102
{ACAD_REACTORS
330
332
102
}
330
1F
100
AcDbEntity
  8
1
  6
Continuous
 62
     7
100
AcDbLine
 10
-55.98270952585271
 20
135.1729400432741
 30
0.0
 11
-71.98270952585283
 21
135.1729400432741
 31
0.0
  0
LINE
  5
21A
102
{ACAD_REACTORS
330
332
102
}
330
1F
100
AcDbEntity
  8
1
  6
Continuous
 62
     7
100
AcDbLine
 10
-75.98270952585283
 20
131.1729400432741
 30
0.0
 11
-75.98270952585266
 21
115.172940043274
 31
0.0
  0
LINE
  5
21B
102
{ACAD_REACTORS
330
330
102
}
330
1F
100
AcDbEntity
  8
1
  6
Continuous
 62
     7
100
AcDbLine
 10
-52.33270952585274
 20
65.7429400432739
 30
0.0
 11
-75.73270952585293
 21
65.74294004327379
 31
0.0
  0
LINE
  5
21C
102
{ACAD_REACTORS
330
330
102
}
330
1F
100
AcDbEntity
  8
1
  6
Continuous
 62
     7
100
AcDbLine
 10
-52.33270952585302
 20
68.0429400432738
 30
0.0
 11
-75.73270952585293
 21
68.0429400432738
 31
0.0
  0
LINE
  5
21D
102
{ACAD_REACTORS
330
330
102
}
330
1F
100
AcDbEntity
  8
1
  6
Continuous
 62
     7
100
AcDbLine
 10
-76.03270952585257
 20
66.04294004327392
 30
0.0
 11
-76.03270952585282
 21
67.74294004327379
 31
0.0
  0
LINE
  5
21E
102
{ACAD_REACTORS
330
330
102
}
330
1F
100
AcDbEntity
  8
1
  6
Continuous
 62
     7
100
AcDbLine
 10
-52.03270952585299
 20
67.74294004327379
 30
0.0
 11
-52.03270952585299
 21
66.0429400432738
 31
0.0
  0
LINE
  5
21F
102
{ACAD_REACTORS
330
32B
102
}
330
1F
100
AcDbEntity
  8
1
  6
Continuous
 62
     7
100
AcDbLine
 10
-62.54924511216857
 20
25.37294004327389
 30
0.0
 11
-56.0327095258527
 21
25.37294004327389
 31
0.0
  0
LINE
  5
220
102
{ACAD_REACTORS
330
331
102
}
330
1F
100
AcDbEntity
  8
1
  6
Continuous
 62
     7
100
AcDbLine
 10
-14.03270952585299
 20
67.74294004327379
 30
0.0
 11
-14.03270952585299
 21
66.0429400432738
 31
0.0
  0
LINE
  5
221
102
{ACAD_REACTORS
330
331
102
}
330
1F
100
AcDbEntity
  8
1
  6
Continuous
 62
     7
100
AcDbLine
 10
-38.03270952585257
 20
66.04294004327392
 30
0.0
 11
-38.03270952585282
 21
67.74294004327379
 31
0.0
  0
LINE
  5
222
102
{ACAD_REACTORS
330
331
102
}
330
1F
100
AcDbEntity
  8
1
  6
Continuous
 62
     7
100
AcDbLine
 10
-14.33270952585302
 20
68.0429400432738
 30
0.0
 11
-37.73270952585293
 21
68.0429400432738
 31
0.0
  0
LINE
  5
223
102
{ACAD_REACTORS
330
331
102
}
330
1F
100
AcDbEntity
  8
1
  6
Continuous
 62
     7
100
AcDbLine
 10
-14.33270952585274
 20
65.7429400432739
 30
0.0
 11
-37.73270952585293
 21
65.74294004327379
 31
0.0
  0
LINE
  5
224
330
1F
100
AcDbEntity
  8
0
  6
Continuous
 62
     7
100
AcDbLine
 10
-33.53270952585272
 20
65.7429400432739
 30
0.0
 11
-36.9377095258527
 21
65.7429400432739
 31
0.0
  0
LINE
  5
225
330
1F
100
AcDbEntity
  8
0
  6
Continuous
 62
     7
100
AcDbLine
 10
-33.53270952585272
 20
65.7429400432739
 30
0.0
 11
-18.53270952585272
 21
65.7429400432739
 31
0.0
  0
LINE
  5
226
330
1F
100
AcDbEntity
  8
0
  6
Continuous
 62
     7
100
AcDbLine
 10
-15.12770952585269
 20
65.7429400432739
 30
0.0
 11
-18.53270952585272
 21
65.7429400432739
 31
0.0
  0
LINE
  5
227
102
{ACAD_REACTORS
330
332
102
}
330
1F
100
AcDbEntity
  8
1
  6
Continuous
 62
     7
100
AcDbLine
 10
-71.98270952585266
 20
111.172940043274
 30
0.0
 11
-55.98270952585271
 21
111.172940043274
 31
0.0
  0
LINE
  5
228
330
1F
100
AcDbEntity
  8
1
  6
Continuous
 62
     7
100
AcDbLine
 10
-41.33230946032589
 20
7.70253384026495
 30
0.0
 11
-40.33686871569276
 21
7.70253384026495
 31
0.0
  0
LINE
  5
229
330
1F
100
AcDbEntity
  8
1
  6
Continuous
 62
     7
100
AcDbLine
 10
-40.98102240644181
 20
7.26342502290976
 30
0.0
 11
-39.68764734441385
 21
7.26342502290976
 31
0.0
  0
LINE
  5
22A
330
1F
100
AcDbEntity
  8
1
  6
Continuous
 62
     7
100
AcDbLine
 10
-40.62973535255765
 20
6.82431620555463
 30
0.0
 11
-40.03893439829795
 21
6.82431620555463
 31
0.0
  0
LINE
  5
22B
330
1F
100
AcDbEntity
  8
1
  6
Continuous
 62
     7
100
AcDbLine
 10
-40.33686871569276
 20
8.63809610980423
 30
0.0
 11
-40.33686871569276
 21
7.70253384026495
 31
0.0
  0
LINE
  5
22C
330
1F
100
AcDbEntity
  8
1
  6
Continuous
 62
     7
100
AcDbLine
 10
-40.33686871569276
 20
7.70253384026495
 30
0.0
 11
-39.33636029052971
 21
7.70253384026495
 31
0.0
  0
ARC
  5
22D
330
1F
100
AcDbEntity
  8
1
  6
Continuous
 62
     7
100
AcDbCircle
 10
-64.0327095258527
 20
30.77460670994246
 30
0.0
 40
5.601666666668552
100
AcDbArc
 50
254.6434132366849
 51
285.3565867633149
  0
ARC
  5
22E
102
{ACAD_REACTORS
330
32B
102
}
330
1F
100
AcDbEntity
  8
1
  6
Continuous
 62
     7
100
AcDbCircle
 10
-64.0327095258527
 20
30.77460670994246
 30
0.0
 40
5.601666666668556
100
AcDbArc
 50
240.009841741659
 51
254.6434132366849
  0
ARC
  5
22F
102
{ACAD_REACTORS
330
32B
102
}
330
1F
100
AcDbEntity
  8
1
  6
Continuous
 62
     7
100
AcDbCircle
 10
-64.0327095258527
 20
30.77460670994246
 30
0.0
 40
5.60166666666855
100
AcDbArc
 50
285.3565867633149
 51
299.990158258341
  0
ARC
  5
230
330
1F
100
AcDbEntity
  8
1
  6
Continuous
 62
     7
100
AcDbCircle
 10
-19.43437619252121
 20
78.89294004327392
 30
0.0
 40
5.601666666668542
100
AcDbArc
 50
330.0098417416593
 51
29.99015825834071
  0
ARC
  5
231
102
{ACAD_REACTORS
330
32D
102
}
330
1F
100
AcDbEntity
  8
1
  6
Continuous
 62
     7
100
AcDbCircle
 10
-9.86269988272437
 20
7.86560865601728
 30
0.0
 40
0.1324831062376677
100
AcDbArc
 50
30.0000000000134
 51
180.0
  0
ARC
  5
232
102
{ACAD_REACTORS
330
32D
102
}
330
1F
100
AcDbEntity
  8
1
  6
Continuous
 62
     7
100
AcDbCircle
 10
-9.82851632229534
 20
5.42379253631646
 30
0.0
 40
0.1666666666666856
100
AcDbArc
 50
180.0
 51
0.0
  0
ARC
  5
233
102
{ACAD_REACTORS
330
32D
102
}
330
1F
100
AcDbEntity
  8
1
  6
Continuous
 62
     7
100
AcDbCircle
 10
-8.49518298896197
 20
4.6541345353009
 30
0.0
 40
0.1666666666666856
100
AcDbArc
 50
180.0
 51
0.0
  0
ARC
  5
234
102
{ACAD_REACTORS
330
32D
102
}
330
1F
100
AcDbEntity
  8
1
  6
Continuous
 62
     7
100
AcDbCircle
 10
-8.460999428533
 20
7.86560865601728
 30
0.0
 40
0.1324831062376575
100
AcDbArc
 50
0.0
 51
149.9999999999743
  0
ARC
  5
235
102
{ACAD_REACTORS
330
32E
102
}
330
1F
100
AcDbEntity
  8
1
  6
Continuous
 62
     7
100
AcDbCircle
 10
-10.49518298896203
 20
7.46125008008368
 30
0.0
 40
0.1666666666666909
100
AcDbArc
 50
0.0
 51
180.0
  0
ARC
  5
236
102
{ACAD_REACTORS
330
32E
102
}
330
1F
100
AcDbEntity
  8
1
  6
Continuous
 62
     7
100
AcDbCircle
 10
-9.32851632229534
 20
4.36567299683935
 30
0.0
 40
0.1666666666666862
100
AcDbArc
 50
240.0183606311495
 51
60.01836063114922
  0
ARC
  5
237
102
{ACAD_REACTORS
330
32C
102
}
330
1F
100
AcDbEntity
  8
1
  6
Continuous
 62
     7
100
AcDbCircle
 10
-11.16184965562866
 20
7.07663469546833
 30
0.0
 40
0.1666666666666305
100
AcDbArc
 50
0.0
 51
180.0
  0
ARC
  5
238
102
{ACAD_REACTORS
330
32C
102
}
330
1F
100
AcDbEntity
  8
1
  6
Continuous
 62
     7
100
AcDbCircle
 10
-11.16184965562866
 20
5.42336530453162
 30
0.0
 40
0.1666666666666785
100
AcDbArc
 50
180.0
 51
0.0
  0
ARC
  5
239
102
{ACAD_REACTORS
330
32F
102
}
330
1F
100
AcDbEntity
  8
1
  6
Continuous
 62
     7
100
AcDbCircle
 10
-7.16184965562866
 20
7.07663469546833
 30
0.0
 40
0.1666666666666878
100
AcDbArc
 50
240.0183606311498
 51
60.01836063115638
  0
ARC
  5
23A
102
{ACAD_REACTORS
330
32F
102
}
330
1F
100
AcDbEntity
  8
1
  6
Continuous
 62
     7
100
AcDbCircle
 10
-7.16184965562866
 20
6.25
 30
0.0
 40
0.1666666666666856
100
AcDbArc
 50
270.0
 51
90.0
  0
ARC
  5
23B
102
{ACAD_REACTORS
330
32F
102
}
330
1F
100
AcDbEntity
  8
1
  6
Continuous
 62
     7
100
AcDbCircle
 10
-7.16184965562866
 20
5.42336530453162
 30
0.0
 40
0.1666666666666609
100
AcDbArc
 50
299.981639368833
 51
119.981639368841
  0
ARC
  5
23C
330
1F
100
AcDbEntity
  8
0
  6
Continuous
 62
     7
100
AcDbCircle
 10
-22.53270952585267
 20
99.49294004327392
 30
0.0
 40
0.2000000000000028
100
AcDbArc
 50
90.0
 51
180.0
  0
ARC
  5
23D
330
1F
100
AcDbEntity
  8
0
  6
Continuous
 62
     7
100
AcDbCircle
 10
-17.53270952585272
 20
99.49294004327392
 30
0.0
 40
0.2000000000000099
100
AcDbArc
 50
0.0
 51
90.0
  0
ARC
  5
23E
330
1F
100
AcDbEntity
  8
0
  6
Continuous
 62
     7
100
AcDbCircle
 10
-15.98270952585266
 20
95.19294004327392
 30
0.0
 40
0.1999999999999904
100
AcDbArc
 50
0.0
 51
90.0
  0
ARC
  5
23F
330
1F
100
AcDbEntity
  8
0
  6
Continuous
 62
     7
100
AcDbCircle
 10
-26.58270952585265
 20
95.19294004327392
 30
0.0
 40
0.1999999999999886
100
AcDbArc
 50
90.0
 51
180.0000000000041
  0
ARC
  5
240
330
1F
100
AcDbEntity
  8
0
  6
Continuous
 62
     7
100
AcDbCircle
 10
-57.2827095258527
 20
39.62294004327385
 30
0.0
 40
1.950000000000021
100
AcDbArc
 50
309.715137231827
 51
270.000000000001
  0
ARC
  5
241
330
1F
100
AcDbEntity
  8
0
  6
Continuous
 62
     7
100
AcDbCircle
 10
-56.5327095258527
 20
44.8729400432739
 30
0.0
 40
2.75
100
AcDbArc
 50
359.999999999999
 51
90.0
  0
ARC
  5
242
102
{ACAD_REACTORS
330
32B
102
}
330
1F
100
AcDbEntity
  8
0
  6
Continuous
 62
     7
100
AcDbCircle
 10
-56.5327095258527
 20
44.8729400432739
 30
0.0
 40
3.0
100
AcDbArc
 50
0.0
 51
90.0
  0
ARC
  5
243
102
{ACAD_REACTORS
330
32B
102
}
330
1F
100
AcDbEntity
  8
0
  6
Continuous
 62
     7
100
AcDbCircle
 10
-71.5327095258527
 20
44.8729400432739
 30
0.0
 40
3.0
100
AcDbArc
 50
90.0
 51
180.0
  0
ARC
  5
244
330
1F
100
AcDbEntity
  8
0
  6
Continuous
 62
     7
100
AcDbCircle
 10
-71.5327095258527
 20
44.8729400432739
 30
0.0
 40
2.74999999999995
100
AcDbArc
 50
90.0
 51
180.000000000001
  0
ARC
  5
245
330
1F
100
AcDbEntity
  8
0
  6
Continuous
 62
     7
100
AcDbCircle
 10
-57.2827095258527
 20
39.62294004327385
 30
0.0
 40
1.949999999999989
100
AcDbArc
 50
270.000000000001
 51
309.715137231827
  0
ARC
  5
246
330
1F
100
AcDbEntity
  8
0
  6
Continuous
 62
     7
100
AcDbCircle
 10
-70.7827095258527
 20
39.62294004327385
 30
0.0
 40
1.949999999999998
100
AcDbArc
 50
230.2848627681738
 51
270.0
  0
ARC
  5
247
330
1F
100
AcDbEntity
  8
0
  6
Continuous
 62
     7
100
AcDbCircle
 10
-70.7827095258527
 20
39.62294004327385
 30
0.0
 40
1.950000000000003
100
AcDbArc
 50
270.0
 51
230.2848627681738
  0
ARC
  5
248
102
{ACAD_REACTORS
330
32B
102
}
330
1F
100
AcDbEntity
  8
0
  6
Continuous
 62
     7
100
AcDbCircle
 10
-71.5327095258527
 20
29.8729400432739
 30
0.0
 40
3.0
100
AcDbArc
 50
180.0
 51
270.0
  0
ARC
  5
249
102
{ACAD_REACTORS
330
32B
102
}
330
1F
100
AcDbEntity
  8
0
  6
Continuous
 62
     7
100
AcDbCircle
 10
-56.5327095258527
 20
29.8729400432739
 30
0.0
 40
3.0
100
AcDbArc
 50
270.0
 51
0.0
  0
ARC
  5
24A
330
1F
100
AcDbEntity
  8
0
  6
Continuous
 62
     7
100
AcDbCircle
 10
-71.5327095258527
 20
29.8729400432739
 30
0.0
 40
2.75
100
AcDbArc
 50
180.000000000001
 51
270.0
  0
ARC
  5
24B
330
1F
100
AcDbEntity
  8
0
  6
Continuous
 62
     7
100
AcDbCircle
 10
-56.5327095258527
 20
29.8729400432739
 30
0.0
 40
2.75000000000005
100
AcDbArc
 50
270.0
 51
359.999999999999
  0
ARC
  5
24C
330
1F
100
AcDbEntity
  8
0
  6
Continuous
 62
     7
100
AcDbCircle
 10
-57.2827095258527
 20
39.62294004327385
 30
0.0
 40
1.949999999999989
100
AcDbArc
 50
270.000000000001
 51
309.715137231827
  0
ARC
  5
24D
330
1F
100
AcDbEntity
  8
0
  6
Continuous
 62
     7
100
AcDbCircle
 10
-68.28270952585267
 20
37.17294004327385
 30
0.0
 40
0.5
100
AcDbArc
 50
0.0
 51
90.0
  0
ARC
  5
24E
330
1F
100
AcDbEntity
  8
0
  6
Continuous
 62
     7
100
AcDbCircle
 10
-70.7827095258527
 20
39.62294004327385
 30
0.0
 40
1.949999999999998
100
AcDbArc
 50
230.2848627681738
 51
270.0
  0
ARC
  5
24F
330
1F
100
AcDbEntity
  8
0
  6
Continuous
 62
     7
100
AcDbCircle
 10
-65.83270952585268
 20
33.87294004327385
 30
0.0
 40
0.1999999999999886
100
AcDbArc
 50
0.0
 51
90.0
  0
ARC
  5
250
330
1F
100
AcDbEntity
  8
0
  6
Continuous
 62
     7
100
AcDbCircle
 10
-64.0327095258527
 20
33.47294004327386
 30
0.0
 40
0.2999999999999987
100
AcDbArc
 50
213.8963552030311
 51
326.1036447969688
  0
ARC
  5
251
330
1F
100
AcDbEntity
  8
0
  6
Continuous
 62
     7
100
AcDbCircle
 10
-62.08270952585268
 20
31.52294004327384
 30
0.0
 40
0.3000000000000105
100
AcDbArc
 50
123.8963552030297
 51
236.1036447969685
  0
ARC
  5
252
330
1F
100
AcDbEntity
  8
0
  6
Continuous
 62
     7
100
AcDbCircle
 10
-65.98270952585268
 20
31.52294004327384
 30
0.0
 40
0.2999999999999799
100
AcDbArc
 50
303.896355203027
 51
56.10364479697675
  0
ARC
  5
253
330
1F
100
AcDbEntity
  8
0
  6
Continuous
 62
     7
100
AcDbCircle
 10
-64.0327095258527
 20
31.52294004327384
 30
0.0
 40
3.75
100
AcDbArc
 50
180.0
 51
216.8698976458438
  0
ARC
  5
254
330
1F
100
AcDbEntity
  8
0
  6
Continuous
 62
     7
100
AcDbCircle
 10
-64.0327095258527
 20
31.52294004327384
 30
0.0
 40
3.749999999999994
100
AcDbArc
 50
323.130102354156
 51
0.0
  0
ARC
  5
255
330
1F
100
AcDbEntity
  8
0
  6
Continuous
 62
     7
100
AcDbCircle
 10
-64.0327095258527
 20
31.52294004327384
 30
0.0
 40
1.800000000000006
100
AcDbArc
 50
187.9518754306584
 51
262.0481245693414
  0
ARC
  5
256
330
1F
100
AcDbEntity
  8
0
  6
Continuous
 62
     7
100
AcDbCircle
 10
-64.0327095258527
 20
31.52294004327384
 30
0.0
 40
1.800000000000006
100
AcDbArc
 50
97.95187543065849
 51
172.0481245693405
  0
ARC
  5
257
330
1F
100
AcDbEntity
  8
0
  6
Continuous
 62
     7
100
AcDbCircle
 10
-64.0327095258527
 20
31.52294004327384
 30
0.0
 40
1.799999999999992
100
AcDbArc
 50
277.9518754306586
 51
352.0481245693416
  0
ARC
  5
258
330
1F
100
AcDbEntity
  8
0
  6
Continuous
 62
     7
100
AcDbCircle
 10
-64.0327095258527
 20
31.52294004327384
 30
0.0
 40
1.800000000000008
100
AcDbArc
 50
7.95187543065894
 51
82.04812456934151
  0
ARC
  5
259
330
1F
100
AcDbEntity
  8
0
  6
Continuous
 62
     7
100
AcDbCircle
 10
-59.78270952585267
 20
37.17294004327385
 30
0.0
 40
0.5
100
AcDbArc
 50
90.0
 51
180.0
  0
ARC
  5
25A
330
1F
100
AcDbEntity
  8
0
  6
Continuous
 62
     7
100
AcDbCircle
 10
-64.0327095258527
 20
29.57294004327385
 30
0.0
 40
0.2999999999999928
100
AcDbArc
 50
33.89635520302948
 51
146.1036447969705
  0
ARC
  5
25B
330
1F
100
AcDbEntity
  8
0
  6
Continuous
 62
     7
100
AcDbCircle
 10
-71.5327095258527
 20
29.8729400432739
 30
0.0
 40
2.75
100
AcDbArc
 50
180.000000000001
 51
270.0
  0
ARC
  5
25C
330
1F
100
AcDbEntity
  8
0
  6
Continuous
 62
     7
100
AcDbCircle
 10
-56.5327095258527
 20
29.8729400432739
 30
0.0
 40
2.75000000000005
100
AcDbArc
 50
270.0
 51
359.999999999999
  0
ARC
  5
25D
330
1F
100
AcDbEntity
  8
0
  6
Continuous
 62
     7
100
AcDbCircle
 10
-56.73270952585268
 20
130.4729400432739
 30
0.0
 40
1.799999999999976
100
AcDbArc
 50
0.0
 51
90.0
  0
ARC
  5
25E
102
{ACAD_REACTORS
330
332
102
}
330
1F
100
AcDbEntity
  8
0
  6
Continuous
 62
     7
100
AcDbCircle
 10
-56.5327095258527
 20
115.6729400432739
 30
0.0
 40
3.0
100
AcDbArc
 50
270.0
 51
0.0
  0
ARC
  5
25F
330
1F
100
AcDbEntity
  8
0
  6
Continuous
 62
     7
100
AcDbCircle
 10
-57.2827095258527
 20
125.4229400432739
 30
0.0
 40
2.350000000000009
100
AcDbArc
 50
90.0
 51
270.0
  0
ARC
  5
260
330
1F
100
AcDbEntity
  8
0
  6
Continuous
 62
     7
100
AcDbCircle
 10
-61.7827095258527
 20
116.4229400432739
 30
0.0
 40
2.150000000000013
100
AcDbArc
 50
0.0
 51
180.0
  0
ARC
  5
261
330
1F
100
AcDbEntity
  8
0
  6
Continuous
 62
     7
100
AcDbCircle
 10
-66.2827095258527
 20
116.4229400432739
 30
0.0
 40
2.350000000000009
100
AcDbArc
 50
90.0000000000007
 51
180.0
  0
ARC
  5
262
330
1F
100
AcDbEntity
  8
0
  6
Continuous
 62
     7
100
AcDbCircle
 10
-57.2827095258527
 20
116.4229400432739
 30
0.0
 40
2.350000000000009
100
AcDbArc
 50
90.0
 51
180.0
  0
ARC
  5
263
330
1F
100
AcDbEntity
  8
0
  6
Continuous
 62
     7
100
AcDbCircle
 10
-57.2827095258527
 20
129.9229400432739
 30
0.0
 40
2.149999999999999
100
AcDbArc
 50
180.0
 51
270.0
  0
ARC
  5
264
102
{ACAD_REACTORS
330
332
102
}
330
1F
100
AcDbEntity
  8
0
  6
Continuous
 62
     7
100
AcDbCircle
 10
-56.5327095258527
 20
130.6729400432739
 30
0.0
 40
3.0
100
AcDbArc
 50
0.0
 51
90.0
  0
ARC
  5
265
330
1F
100
AcDbEntity
  8
0
  6
Continuous
 62
     7
100
AcDbCircle
 10
-56.73270952585268
 20
115.8729400432739
 30
0.0
 40
1.799999999999997
100
AcDbArc
 50
270.0
 51
0.0
  0
ARC
  5
266
330
1F
100
AcDbEntity
  8
0
  6
Continuous
 62
     7
100
AcDbCircle
 10
-57.2827095258527
 20
120.9229400432739
 30
0.0
 40
2.150000000000006
100
AcDbArc
 50
90.0
 51
270.0
  0
ARC
  5
267
330
1F
100
AcDbEntity
  8
0
  6
Continuous
 62
     7
100
AcDbCircle
 10
-70.78270952585244
 20
120.9229400432739
 30
0.0
 40
2.349999999999739
100
AcDbArc
 50
0.0
 51
90.00000000000277
  0
ARC
  5
268
330
1F
100
AcDbEntity
  8
0
  6
Continuous
 62
     7
100
AcDbCircle
 10
-66.2827095258527
 20
116.4229400432739
 30
0.0
 40
2.349999999999994
100
AcDbArc
 50
0.0
 51
90.0000000000007
  0
ARC
  5
269
330
1F
100
AcDbEntity
  8
0
  6
Continuous
 62
     7
100
AcDbCircle
 10
-61.7827095258527
 20
120.9229400432739
 30
0.0
 40
2.349999999999994
100
AcDbArc
 50
270.0
 51
0.0
  0
ARC
  5
26A
330
1F
100
AcDbEntity
  8
0
  6
Continuous
 62
     7
100
AcDbCircle
 10
-70.78270952585244
 20
120.9229400432739
 30
0.0
 40
2.349999999999994
100
AcDbArc
 50
269.9999999999972
 51
0.0
  0
ARC
  5
26B
330
1F
100
AcDbEntity
  8
0
  6
Continuous
 62
     7
100
AcDbCircle
 10
-61.7827095258527
 20
120.9229400432739
 30
0.0
 40
2.349999999999987
100
AcDbArc
 50
180.0
 51
270.0
  0
ARC
  5
26C
330
1F
100
AcDbEntity
  8
0
  6
Continuous
 62
     7
100
AcDbCircle
 10
-61.7827095258527
 20
120.9229400432739
 30
0.0
 40
2.350000000000001
100
AcDbArc
 50
0.0
 51
180.0
  0
ARC
  5
26D
102
{ACAD_REACTORS
330
332
102
}
330
1F
100
AcDbEntity
  8
0
  6
Continuous
 62
     7
100
AcDbCircle
 10
-71.5327095258527
 20
130.6729400432739
 30
0.0
 40
3.0
100
AcDbArc
 50
90.0
 51
180.0
  0
ARC
  5
26E
330
1F
100
AcDbEntity
  8
0
  6
Continuous
 62
     7
100
AcDbCircle
 10
-71.33270952585268
 20
115.8729400432739
 30
0.0
 40
1.800000000000011
100
AcDbArc
 50
180.0
 51
270.0
  0
ARC
  5
26F
330
1F
100
AcDbEntity
  8
0
  6
Continuous
 62
     7
100
AcDbCircle
 10
-71.33270952585268
 20
130.4729400432739
 30
0.0
 40
1.800000000000011
100
AcDbArc
 50
90.0
 51
180.0
  0
ARC
  5
270
102
{ACAD_REACTORS
330
332
102
}
330
1F
100
AcDbEntity
  8
0
  6
Continuous
 62
     7
100
AcDbCircle
 10
-71.5327095258527
 20
115.6729400432739
 30
0.0
 40
3.0
100
AcDbArc
 50
180.0
 51
270.0000000000005
  0
ARC
  5
271
330
1F
100
AcDbEntity
  8
0
  6
Continuous
 62
     7
100
AcDbCircle
 10
-70.7827095258527
 20
116.4229400432739
 30
0.0
 40
2.149999999999949
100
AcDbArc
 50
0.0
 51
89.99999999999622
  0
ARC
  5
272
330
1F
100
AcDbEntity
  8
0
  6
Continuous
 62
     7
100
AcDbCircle
 10
-70.7827095258527
 20
125.4229400432739
 30
0.0
 40
2.149999999999991
100
AcDbArc
 50
270.0000000000038
 51
90.0
  0
ARC
  5
273
330
1F
100
AcDbEntity
  8
0
  6
Continuous
 62
     7
100
AcDbCircle
 10
-70.78270952585267
 20
129.9229400432739
 30
0.0
 40
2.350000000000009
100
AcDbArc
 50
269.9999999999993
 51
0.0
  0
ARC
  5
274
330
1F
100
AcDbEntity
  8
0
  6
Continuous
 62
     7
100
AcDbCircle
 10
-53.12770952585269
 20
66.8879400432739
 30
0.0
 40
1.144999999999996
100
AcDbArc
 50
270.0
 51
0.0
  0
ARC
  5
275
330
1F
100
AcDbEntity
  8
0
  6
Continuous
 62
     7
100
AcDbCircle
 10
-74.9377095258527
 20
66.8879400432739
 30
0.0
 40
1.144999999999982
100
AcDbArc
 50
180.0
 51
270.0
  0
ARC
  5
276
330
1F
100
AcDbEntity
  8
0
  6
Continuous
 62
     7
100
AcDbCircle
 10
-60.08270952585268
 20
95.59294004327391
 30
0.0
 40
0.2000000000000242
100
AcDbArc
 50
180.0
 51
270.0
  0
ARC
  5
277
330
1F
100
AcDbEntity
  8
0
  6
Continuous
 62
     7
100
AcDbCircle
 10
-60.48270952585268
 20
99.49294004327392
 30
0.0
 40
0.1999999999999744
100
AcDbArc
 50
0.0
 51
90.0
  0
ARC
  5
278
330
1F
100
AcDbEntity
  8
0
  6
Continuous
 62
     7
100
AcDbCircle
 10
-67.58270952585268
 20
99.49294004327392
 30
0.0
 40
0.2000000000000028
100
AcDbArc
 50
90.0
 51
180.0
  0
ARC
  5
279
330
1F
100
AcDbEntity
  8
0
  6
Continuous
 62
     7
100
AcDbCircle
 10
-61.23270952585271
 20
99.49294004327392
 30
0.0
 40
0.2000000000000099
100
AcDbArc
 50
0.00000000026462
 51
90.0
  0
ARC
  5
27A
330
1F
100
AcDbEntity
  8
0
  6
Continuous
 62
     7
100
AcDbCircle
 10
-66.83270952585268
 20
99.49294004327392
 30
0.0
 40
0.2000000000000028
100
AcDbArc
 50
90.0
 51
180.0
  0
ARC
  5
27B
330
1F
100
AcDbEntity
  8
0
  6
Continuous
 62
     7
100
AcDbCircle
 10
-67.98270952585268
 20
95.59294004327391
 30
0.0
 40
0.2000000000000028
100
AcDbArc
 50
270.0
 51
0.0
  0
ARC
  5
27C
330
1F
100
AcDbEntity
  8
0
  6
Continuous
 62
     7
100
AcDbCircle
 10
-68.38270952585275
 20
95.19294004327392
 30
0.0
 40
0.1999999999999886
100
AcDbArc
 50
90.00000000000813
 51
180.0
  0
ARC
  5
27D
330
1F
100
AcDbEntity
  8
0
  6
Continuous
 62
     7
100
AcDbCircle
 10
-53.98270952585268
 20
95.19294004327392
 30
0.0
 40
0.1999999999999744
100
AcDbArc
 50
0.0
 51
90.0
  0
ARC
  5
27E
330
1F
100
AcDbEntity
  8
0
  6
Continuous
 62
     7
100
AcDbCircle
 10
-74.08270952585268
 20
95.19294004327392
 30
0.0
 40
0.1999999999999886
100
AcDbArc
 50
90.0
 51
180.0
  0
ARC
  5
27F
330
1F
100
AcDbEntity
  8
0
  6
Continuous
 62
     7
100
AcDbCircle
 10
-59.68270952585264
 20
95.19294004327392
 30
0.0
 40
0.1999999999999744
100
AcDbArc
 50
0.0
 51
90.0
  0
ARC
  5
280
330
1F
100
AcDbEntity
  8
0
  6
Continuous
 62
     7
100
AcDbCircle
 10
-62.23270952585266
 20
33.87294004327385
 30
0.0
 40
0.2000000000000028
100
AcDbArc
 50
90.0
 51
180.0
  0
ARC
  5
281
330
1F
100
AcDbEntity
  8
0
  6
Continuous
 62
     7
100
AcDbCircle
 10
-36.9377095258527
 20
66.8879400432739
 30
0.0
 40
1.144999999999975
100
AcDbArc
 50
180.0
 51
270.0
  0
ARC
  5
282
330
1F
100
AcDbEntity
  8
0
  6
Continuous
 62
     7
100
AcDbCircle
 10
-15.12770952585269
 20
66.8879400432739
 30
0.0
 40
1.144999999999996
100
AcDbArc
 50
270.0
 51
0.0
  0
CIRCLE
  5
283
330
1F
100
AcDbEntity
  8
1
  6
Continuous
 62
     7
100
AcDbCircle
 10
-64.0327095258527
 20
78.89294404642304
 30
0.0
 40
2.749999999999982
  0
CIRCLE
  5
284
330
1F
100
AcDbEntity
  8
1
  6
Continuous
 62
     7
100
AcDbCircle
 10
-64.0327095258527
 20
78.89294404642304
 30
0.0
 40
1.999999999999993
  0
CIRCLE
  5
285
330
1F
100
AcDbEntity
  8
0
  6
Continuous
 62
     7
100
AcDbCircle
 10
-57.2827095258527
 20
39.62294004327385
 30
0.0
 40
1.300000000000004
  0
CIRCLE
  5
286
330
1F
100
AcDbEntity
  8
0
  6
Continuous
 62
     7
100
AcDbCircle
 10
-57.2827095258527
 20
44.12294004327385
 30
0.0
 40
1.300000000000004
  0
CIRCLE
  5
287
330
1F
100
AcDbEntity
  8
0
  6
Continuous
 62
     7
100
AcDbCircle
 10
-57.2827095258527
 20
44.12294004327385
 30
0.0
 40
1.950000000000024
  0
CIRCLE
  5
288
330
1F
100
AcDbEntity
  8
0
  6
Continuous
 62
     7
100
AcDbCircle
 10
-57.2827095258527
 20
35.12294004327385
 30
0.0
 40
1.300000000000004
  0
CIRCLE
  5
289
330
1F
100
AcDbEntity
  8
0
  6
Continuous
 62
     7
100
AcDbCircle
 10
-70.7827095258527
 20
39.62294004327385
 30
0.0
 40
1.300000000000011
  0
CIRCLE
  5
28A
330
1F
100
AcDbEntity
  8
0
  6
Continuous
 62
     7
100
AcDbCircle
 10
-70.7827095258527
 20
44.12294004327385
 30
0.0
 40
1.300000000000011
  0
CIRCLE
  5
28B
330
1F
100
AcDbEntity
  8
0
  6
Continuous
 62
     7
100
AcDbCircle
 10
-66.2827095258527
 20
44.12294004327385
 30
0.0
 40
1.950000000000017
  0
CIRCLE
  5
28C
330
1F
100
AcDbEntity
  8
0
  6
Continuous
 62
     7
100
AcDbCircle
 10
-70.7827095258527
 20
44.12294004327385
 30
0.0
 40
1.950000000000017
  0
CIRCLE
  5
28D
330
1F
100
AcDbEntity
  8
0
  6
Continuous
 62
     7
100
AcDbCircle
 10
-66.2827095258527
 20
39.62294004327385
 30
0.0
 40
1.950000000000017
  0
CIRCLE
  5
28E
330
1F
100
AcDbEntity
  8
0
  6
Continuous
 62
     7
100
AcDbCircle
 10
-70.7827095258527
 20
35.12294004327385
 30
0.0
 40
1.300000000000011
  0
CIRCLE
  5
28F
330
1F
100
AcDbEntity
  8
0
  6
Continuous
 62
     7
100
AcDbCircle
 10
-70.7827095258527
 20
30.62294004327385
 30
0.0
 40
1.300000000000011
  0
CIRCLE
  5
290
330
1F
100
AcDbEntity
  8
0
  6
Continuous
 62
     7
100
AcDbCircle
 10
-70.7827095258527
 20
35.12294004327385
 30
0.0
 40
1.950000000000017
  0
CIRCLE
  5
291
330
1F
100
AcDbEntity
  8
0
  6
Continuous
 62
     7
100
AcDbCircle
 10
-70.7827095258527
 20
30.62294004327385
 30
0.0
 40
1.950000000000017
  0
CIRCLE
  5
292
330
1F
100
AcDbEntity
  8
0
  6
Continuous
 62
     7
100
AcDbCircle
 10
-66.28270952585267
 20
35.57294004327385
 30
0.0
 40
1.300000000000011
  0
CIRCLE
  5
293
330
1F
100
AcDbEntity
  8
0
  6
Continuous
 62
     7
100
AcDbCircle
 10
-61.7827095258527
 20
35.57294004327385
 30
0.0
 40
1.299999999999976
  0
CIRCLE
  5
294
330
1F
100
AcDbEntity
  8
0
  6
Continuous
 62
     7
100
AcDbCircle
 10
-57.2827095258527
 20
30.62294004327385
 30
0.0
 40
1.300000000000004
  0
CIRCLE
  5
295
330
1F
100
AcDbEntity
  8
0
  6
Continuous
 62
     7
100
AcDbCircle
 10
-57.2827095258527
 20
35.12294004327385
 30
0.0
 40
1.950000000000024
  0
CIRCLE
  5
296
330
1F
100
AcDbEntity
  8
0
  6
Continuous
 62
     7
100
AcDbCircle
 10
-57.2827095258527
 20
30.62294004327385
 30
0.0
 40
1.950000000000024
  0
CIRCLE
  5
297
330
1F
100
AcDbEntity
  8
0
  6
Continuous
 62
     7
100
AcDbCircle
 10
-61.7827095258527
 20
39.62294004327385
 30
0.0
 40
1.300000000000004
  0
CIRCLE
  5
298
330
1F
100
AcDbEntity
  8
0
  6
Continuous
 62
     7
100
AcDbCircle
 10
-61.7827095258527
 20
44.12294004327385
 30
0.0
 40
1.300000000000004
  0
CIRCLE
  5
299
330
1F
100
AcDbEntity
  8
0
  6
Continuous
 62
     7
100
AcDbCircle
 10
-66.2827095258527
 20
39.62294004327385
 30
0.0
 40
1.300000000000011
  0
CIRCLE
  5
29A
330
1F
100
AcDbEntity
  8
0
  6
Continuous
 62
     7
100
AcDbCircle
 10
-66.2827095258527
 20
44.12294004327385
 30
0.0
 40
1.300000000000011
  0
CIRCLE
  5
29B
330
1F
100
AcDbEntity
  8
0
  6
Continuous
 62
     7
100
AcDbCircle
 10
-61.7827095258527
 20
39.62294004327385
 30
0.0
 40
1.950000000000024
  0
CIRCLE
  5
29C
330
1F
100
AcDbEntity
  8
0
  6
Continuous
 62
     7
100
AcDbCircle
 10
-61.7827095258527
 20
44.12294004327385
 30
0.0
 40
1.950000000000024
  0
CIRCLE
  5
29D
330
1F
100
AcDbEntity
  8
0
  6
Continuous
 62
     7
100
AcDbCircle
 10
-70.7827095258527
 20
35.12294004327385
 30
0.0
 40
1.950000000000017
  0
CIRCLE
  5
29E
330
1F
100
AcDbEntity
  8
0
  6
Continuous
 62
     7
100
AcDbCircle
 10
-70.7827095258527
 20
30.62294004327385
 30
0.0
 40
1.950000000000017
  0
CIRCLE
  5
29F
330
1F
100
AcDbEntity
  8
0
  6
Continuous
 62
     7
100
AcDbCircle
 10
-57.2827095258527
 20
35.12294004327385
 30
0.0
 40
1.950000000000024
  0
CIRCLE
  5
2A0
330
1F
100
AcDbEntity
  8
0
  6
Continuous
 62
     7
100
AcDbCircle
 10
-57.2827095258527
 20
30.62294004327385
 30
0.0
 40
1.950000000000024
  0
CIRCLE
  5
2A1
330
1F
100
AcDbEntity
  8
0
  6
Continuous
 62
     7
100
AcDbCircle
 10
-64.0327095258527
 20
129.0229400432739
 30
0.0
 40
0.799999999999983
  0
CIRCLE
  5
2A2
330
1F
100
AcDbEntity
  8
0
  6
Continuous
 62
     7
100
AcDbCircle
 10
-57.2827095258527
 20
125.4229400432739
 30
0.0
 40
1.299999999999976
  0
CIRCLE
  5
2A3
330
1F
100
AcDbEntity
  8
0
  6
Continuous
 62
     7
100
AcDbCircle
 10
-57.2827095258527
 20
116.4229400432739
 30
0.0
 40
1.299999999999976
  0
CIRCLE
  5
2A4
330
1F
100
AcDbEntity
  8
0
  6
Continuous
 62
     7
100
AcDbCircle
 10
-57.2827095258527
 20
129.9229400432739
 30
0.0
 40
1.299999999999976
  0
CIRCLE
  5
2A5
330
1F
100
AcDbEntity
  8
0
  6
Continuous
 62
     7
100
AcDbCircle
 10
-57.2827095258527
 20
120.9229400432739
 30
0.0
 40
1.299999999999976
  0
CIRCLE
  5
2A6
330
1F
100
AcDbEntity
  8
0
  6
Continuous
 62
     7
100
AcDbCircle
 10
-57.2827095258527
 20
120.9229400432739
 30
0.0
 40
1.54999999999999
  0
CIRCLE
  5
2A7
330
1F
100
AcDbEntity
  8
0
  6
Continuous
 62
     7
100
AcDbCircle
 10
-57.2827095258527
 20
129.9229400432739
 30
0.0
 40
1.54999999999999
  0
CIRCLE
  5
2A8
330
1F
100
AcDbEntity
  8
0
  6
Continuous
 62
     7
100
AcDbCircle
 10
-57.2827095258527
 20
125.4229400432739
 30
0.0
 40
1.54999999999999
  0
CIRCLE
  5
2A9
330
1F
100
AcDbEntity
  8
0
  6
Continuous
 62
     7
100
AcDbCircle
 10
-61.7827095258527
 20
124.9729400432739
 30
0.0
 40
1.299999999999976
  0
CIRCLE
  5
2AA
330
1F
100
AcDbEntity
  8
0
  6
Continuous
 62
     7
100
AcDbCircle
 10
-61.7827095258527
 20
116.4229400432739
 30
0.0
 40
1.299999999999976
  0
CIRCLE
  5
2AB
330
1F
100
AcDbEntity
  8
0
  6
Continuous
 62
     7
100
AcDbCircle
 10
-66.2827095258527
 20
116.4229400432739
 30
0.0
 40
1.299999999999983
  0
CIRCLE
  5
2AC
330
1F
100
AcDbEntity
  8
0
  6
Continuous
 62
     7
100
AcDbCircle
 10
-66.2827095258527
 20
116.4229400432739
 30
0.0
 40
1.549999999999983
  0
CIRCLE
  5
2AD
330
1F
100
AcDbEntity
  8
0
  6
Continuous
 62
     7
100
AcDbCircle
 10
-57.2827095258527
 20
116.4229400432739
 30
0.0
 40
1.54999999999999
  0
CIRCLE
  5
2AE
330
1F
100
AcDbEntity
  8
0
  6
Continuous
 62
     7
100
AcDbCircle
 10
-61.7827095258527
 20
116.4229400432739
 30
0.0
 40
1.54999999999999
  0
CIRCLE
  5
2AF
330
1F
100
AcDbEntity
  8
0
  6
Continuous
 62
     7
100
AcDbCircle
 10
-66.2827095258527
 20
120.9229400432739
 30
0.0
 40
1.299999999999983
  0
CIRCLE
  5
2B0
330
1F
100
AcDbEntity
  8
0
  6
Continuous
 62
     7
100
AcDbCircle
 10
-61.7827095258527
 20
120.9229400432739
 30
0.0
 40
1.299999999999976
  0
CIRCLE
  5
2B1
330
1F
100
AcDbEntity
  8
0
  6
Continuous
 62
     7
100
AcDbCircle
 10
-61.7827095258527
 20
120.9229400432739
 30
0.0
 40
1.54999999999999
  0
CIRCLE
  5
2B2
330
1F
100
AcDbEntity
  8
0
  6
Continuous
 62
     7
100
AcDbCircle
 10
-66.2827095258527
 20
120.9229400432739
 30
0.0
 40
1.549999999999983
  0
CIRCLE
  5
2B3
330
1F
100
AcDbEntity
  8
0
  6
Continuous
 62
     7
100
AcDbCircle
 10
-70.7827095258527
 20
116.4229400432739
 30
0.0
 40
1.299999999999983
  0
CIRCLE
  5
2B4
330
1F
100
AcDbEntity
  8
0
  6
Continuous
 62
     7
100
AcDbCircle
 10
-70.78270952585244
 20
120.9229400432739
 30
0.0
 40
1.549999999999727
  0
CIRCLE
  5
2B5
330
1F
100
AcDbEntity
  8
0
  6
Continuous
 62
     7
100
AcDbCircle
 10
-70.78270952585244
 20
120.9229400432739
 30
0.0
 40
1.300000000000239
  0
CIRCLE
  5
2B6
330
1F
100
AcDbEntity
  8
0
  6
Continuous
 62
     7
100
AcDbCircle
 10
-70.7827095258527
 20
116.4229400432739
 30
0.0
 40
1.549999999999983
  0
CIRCLE
  5
2B7
330
1F
100
AcDbEntity
  8
0
  6
Continuous
 62
     7
100
AcDbCircle
 10
-70.7827095258527
 20
125.4229400432739
 30
0.0
 40
1.549999999999983
  0
CIRCLE
  5
2B8
330
1F
100
AcDbEntity
  8
0
  6
Continuous
 62
     7
100
AcDbCircle
 10
-64.0327095258527
 20
129.0229400432739
 30
0.0
 40
0.9000000000000057
  0
CIRCLE
  5
2B9
330
1F
100
AcDbEntity
  8
0
  6
Continuous
 62
     7
100
AcDbCircle
 10
-66.28270952585267
 20
124.9729400432739
 30
0.0
 40
1.300000000000011
  0
CIRCLE
  5
2BA
330
1F
100
AcDbEntity
  8
0
  6
Continuous
 62
     7
100
AcDbCircle
 10
-70.7827095258527
 20
125.4229400432739
 30
0.0
 40
1.299999999999983
  0
CIRCLE
  5
2BB
330
1F
100
AcDbEntity
  8
0
  6
Continuous
 62
     7
100
AcDbCircle
 10
-70.78270952585267
 20
129.9229400432739
 30
0.0
 40
1.300000000000011
  0
CIRCLE
  5
2BC
330
1F
100
AcDbEntity
  8
0
  6
Continuous
 62
     7
100
AcDbCircle
 10
-70.78270952585267
 20
129.9229400432739
 30
0.0
 40
1.549999999999955
  0
CIRCLE
  5
2BD
330
1F
100
AcDbEntity
  8
0
  6
Continuous
 62
     7
100
AcDbCircle
 10
-64.0327095258527
 20
31.52294004327384
 30
0.0
 40
2.499999999999998
  0
CIRCLE
  5
2BE
330
1F
100
AcDbEntity
  8
0
  6
Continuous
 62
     7
100
AcDbCircle
 10
-66.2827095258527
 20
120.9229400432739
 30
0.0
 40
2.150000000000006
  0
CIRCLE
  5
2BF
330
1F
100
AcDbEntity
  8
1
  6
Continuous
 62
     4
100
AcDbCircle
 10
-64.03405611245705
 20
131.0965934566696
 30
0.0
 40
0.6629557642159511
  0
CIRCLE
  5
2C0
330
1F
100
AcDbEntity
  8
1
  6
Continuous
 62
     4
100
AcDbCircle
 10
-61.1344844961616
 20
33.17413874659597
 30
0.0
 40
0.6629557642160009
  0
CIRCLE
  5
2C1
330
1F
100
AcDbEntity
  8
1
  6
Continuous
 62
     7
100
AcDbCircle
 10
-40.3343348754278
 20
7.69999999999999
 30
0.0
 40
1.24746823112261
  0
SPLINE
  5
2C2
330
1F
100
AcDbEntity
  8
0
  6
Continuous
 62
     7
100
AcDbSpline
210
0.0
220
0.0
230
1.0
 70
     8
 71
     3
 72
    17
 73
    13
 74
    11
 42
0.000000001
 43
0.0000000001
 44
0.00000001
 40
0.0
 40
0.0
 40
0.0
 40
0.0
 40
0.0427693143967277
 40
0.0838395400330046
 40
0.1163233318161605
 40
0.1454801369760376
 40
0.1625438107684826
 40
0.1777009388229175
 40
0.1907933707858599
 40
0.2020353223189439
 40
0.2133219632062776
 40
0.2232678226938137
 40
0.2232678226938137
 40
0.2232678226938137
 40
0.2232678226938137
 10
-17.9327095258527
 20
99.49294004327392
 30
0.0
 10
-17.93299901405155
 20
99.5071994787524
 30
0.0
 10
-17.93356648525806
 20
99.5351518678701
 30
0.0
 10
-17.93793778896499
 20
99.57373852416164
 30
0.0
 10
-17.944280349911
 20
99.60740911862254
 30
0.0
 10
-17.95137716770411
 20
99.63271551459631
 30
0.0
 10
-17.95876265227328
 20
99.65182278468139
 30
0.0
 10
-17.96551223824295
 20
99.66535628021794
 30
0.0
 10
-17.97277651582677
 20
99.67641415169112
 30
0.0
 10
-17.98083905218051
 20
99.6851227452225
 30
0.0
 10
-17.98995638830475
 20
99.69157784284002
 30
0.0
 10
-17.99706457845936
 20
99.6925055030352
 30
0.0
 10
-18.00039424157315
 20
99.69294004327392
 30
0.0
 11
-17.9327095258527
 21
99.49294004327392
 31
0.0
 11
-17.93425021040429
 21
99.53568158909808
 31
0.0
 11
-17.93881479764816
 21
99.57649737029443
 31
0.0
 11
-17.94497229263587
 21
99.60839222849296
 31
0.0
 11
-17.95302230296666
 21
99.63641572948235
 31
0.0
 11
-17.95925074466743
 21
99.65230205909225
 31
0.0
 11
-17.96610435058538
 21
99.66582117906916
 31
0.0
 11
-17.973415547653
 21
99.67668203337159
 31
0.0
 11
-17.98113417875608
 21
99.68485541598193
 31
0.0
 11
-17.99065693975799
 21
99.69091389697343
 31
0.0
 11
-18.00039424157315
 21
99.69294004327392
 31
0.0
  0
SPLINE
  5
2C3
330
1F
100
AcDbEntity
  8
0
  6
Continuous
 62
     7
100
AcDbSpline
210
0.0
220
0.0
230
1.0
 70
     8
 71
     3
 72
    19
 73
    15
 74
    13
 42
0.000000001
 43
0.0000000001
 44
0.00000001
 40
0.0
 40
0.0
 40
0.0
 40
0.0
 40
0.0169540444437166
 40
0.0339002383719232
 40
0.1225288813311501
 40
0.2060077354911599
 40
0.2393578656357508
 40
0.2651300255507879
 40
0.286810137434379
 40
0.311203646237912
 40
0.3282500930970109
 40
0.3470046753973801
 40
0.3758388801445511
 40
0.4118212359507828
 40
0.4118212359507828
 40
0.4118212359507828
 40
0.4118212359507828
 10
-17.61317649434675
 20
95.39294004327391
 30
0.0
 10
-17.61882830306319
 20
95.39299891782902
 30
0.0
 10
-17.63012930321865
 20
95.39311665094795
 30
0.0
 10
-17.67091647965266
 20
95.39536928178268
 30
0.0
 10
-17.7334914847902
 20
95.40557703165501
 30
0.0
 10
-17.79825555354242
 20
95.42946474114164
 30
0.0
 10
-17.83964806894664
 20
95.45298802635419
 30
0.0
 10
-17.86168650657867
 20
95.46853966257424
 30
0.0
 10
-17.87995653191437
 20
95.4840680141183
 30
0.0
 10
-17.89457869741888
 20
95.49926097310333
 30
0.0
 10
-17.90692658706395
 20
95.51512363310476
 30
0.0
 10
-17.91828890820022
 20
95.53343450179796
 30
0.0
 10
-17.92976098097117
 20
95.55922742446364
 30
0.0
 10
-17.93165698353003
 20
95.58090559318907
 30
0.0
 10
-17.93270952585267
 20
95.59294004327391
 30
0.0
 11
-17.61317649434675
 21
95.39294004327391
 31
0.0
 11
-17.63012782307589
 21
95.39324310565411
 31
0.0
 11
-17.64704982256068
 21
95.39414829239308
 31
0.0
 11
-17.73447616681634
 21
95.40869719548432
 31
0.0
 11
-17.81256876105046
 21
95.43819746370981
 31
0.0
 11
-17.84151805284794
 21
95.45475553377968
 31
0.0
 11
-17.86254433616269
 21
95.46965854141894
 31
0.0
 11
-17.87903556972766
 21
95.48373215036918
 31
0.0
 11
-17.89589983337787
 21
95.5013571296933
 31
0.0
 11
-17.90633803602385
 21
95.51483397263594
 31
0.0
 11
-17.91623230420909
 21
95.53076626294782
 31
0.0
 11
-17.92739413427935
 21
95.55735244787374
 31
0.0
 11
-17.93270952585267
 21
95.59294004327391
 31
0.0
  0
ARC
  5
2C4
330
1F
100
AcDbEntity
  8
1
  6
Continuous
 62
     7
100
AcDbCircle
 10
-65.8327095258527
 20
27.69720411198562
 30
0.0
 40
0.3000000000000748
100
AcDbArc
 50
315.0000000000077
 51
0.0
  0
ARC
  5
2C5
330
1F
100
AcDbEntity
  8
1
  6
Continuous
 62
     7
100
AcDbCircle
 10
-62.23270952585268
 20
27.69720411198562
 30
0.0
 40
0.3000000000000256
100
AcDbArc
 50
180.0
 51
224.999999999999
  0
ARC
  5
2C6
330
1F
100
AcDbEntity
  8
1
  6
Continuous
 62
     7
100
AcDbCircle
 10
-63.38080576241212
 20
64.21039436589655
 30
0.0
 40
0.2576129032255707
100
AcDbArc
 50
0.0
 51
90.0
  0
ARC
  5
2C7
330
1F
100
AcDbEntity
  8
1
  6
Continuous
 62
     7
100
AcDbCircle
 10
-61.26718730363017
 20
63.43278504690162
 30
0.0
 40
0.25880555555662
100
AcDbArc
 50
270.0
 51
0.0
  0
ARC
  5
2C8
330
1F
100
AcDbEntity
  8
1
  6
Continuous
 62
     7
100
AcDbCircle
 10
-62.16930952585258
 20
63.43278504690162
 30
0.0
 40
0.2588055555548081
100
AcDbArc
 50
180.0
 51
270.0
  0
ARC
  5
2C9
330
1F
100
AcDbEntity
  8
1
  6
Continuous
 62
     7
100
AcDbCircle
 10
-61.26718730363017
 20
64.2092017135679
 30
0.0
 40
0.2588055555548365
100
AcDbArc
 50
0.0
 51
90.0
  0
ARC
  5
2CA
330
1F
100
AcDbEntity
  8
1
  6
Continuous
 62
     7
100
AcDbCircle
 10
-62.16930952585258
 20
64.2092017135679
 30
0.0
 40
0.2588055555548294
100
AcDbArc
 50
90.0
 51
180.0
  0
ARC
  5
2CB
102
{ACAD_REACTORS
330
32D
102
}
330
1F
100
AcDbEntity
  8
1
  6
Continuous
 62
     7
100
AcDbCircle
 10
-9.16184965562866
 20
6.41666666666663
 30
0.0
 40
0.083333333333354
100
AcDbArc
 50
209.9999999999617
 51
330.0000000000188
  0
ARC
  5
2CC
102
{ACAD_REACTORS
330
32E
102
}
330
1F
100
AcDbEntity
  8
1
  6
Continuous
 62
     7
100
AcDbCircle
 10
-10.32851632229534
 20
5.13501057401635
 30
0.0
 40
0.3333333333333215
100
AcDbArc
 50
180.0000000000104
 51
240.0183606311578
  0
ARC
  5
2CD
330
1F
100
AcDbEntity
  8
1
  6
Continuous
 62
     7
100
AcDbCircle
 10
-13.32842375540861
 20
6.25
 30
0.0
 40
0.0833333333333037
100
AcDbArc
 50
119.9816393688873
 51
240.0183606311341
  0
ARC
  5
2CE
330
1F
100
AcDbEntity
  8
1
  6
Continuous
 62
     7
100
AcDbCircle
 10
-4.99527555584871
 20
6.25
 30
0.0
 40
0.0833333333333301
100
AcDbArc
 50
299.9816393688331
 51
60.01836063114554
  0
ARC
  5
2CF
102
{ACAD_REACTORS
330
32F
102
}
330
1F
100
AcDbEntity
  8
1
  6
Continuous
 62
     7
100
AcDbCircle
 10
-7.82851632229534
 20
7.46125008008368
 30
0.0
 40
0.1666666666666885
100
AcDbArc
 50
60.01836063114997
 51
180.0
  0
ARC
  5
2D0
102
{ACAD_REACTORS
330
32F
102
}
330
1F
100
AcDbEntity
  8
1
  6
Continuous
 62
     7
100
AcDbCircle
 10
-7.82851632229534
 20
5.03874991991631
 30
0.0
 40
0.1666666666666288
100
AcDbArc
 50
180.0
 51
299.9816393688506
  0
ARC
  5
2D1
330
1F
100
AcDbEntity
  8
1
  6
Continuous
 62
     7
100
AcDbCircle
 10
-63.6571596676887
 20
78.89294404642305
 30
0.0
 40
0.099999999999994
100
AcDbArc
 50
141.340191745929
 51
218.6598082540685
  0
ARC
  5
2D2
330
1F
100
AcDbEntity
  8
1
  6
Continuous
 62
     7
100
AcDbCircle
 10
-64.03270952585264
 20
79.268493904587
 30
0.0
 40
0.0999999999999529
100
AcDbArc
 50
231.3401917458997
 51
308.6598082540672
  0
ARC
  5
2D3
330
1F
100
AcDbEntity
  8
1
  6
Continuous
 62
     7
100
AcDbCircle
 10
-64.40825938401666
 20
78.89294404642298
 30
0.0
 40
0.1000000000000062
100
AcDbArc
 50
321.3401917459659
 51
38.65980825409772
  0
ARC
  5
2D4
330
1F
100
AcDbEntity
  8
1
  6
Continuous
 62
     7
100
AcDbCircle
 10
-64.0327095258527
 20
78.51739418825905
 30
0.0
 40
0.1000000000000706
100
AcDbArc
 50
51.3401917459328
 51
128.659808254057
  0
ARC
  5
2D5
102
{ACAD_REACTORS
330
32B
102
}
330
1F
100
AcDbEntity
  8
1
  6
Continuous
 62
     7
100
AcDbCircle
 10
-56.0327095258527
 20
45.37294004327396
 30
0.0
 40
4.0
100
AcDbArc
 50
0.0
 51
90.0
  0
ARC
  5
2D6
102
{ACAD_REACTORS
330
32B
102
}
330
1F
100
AcDbEntity
  8
1
  6
Continuous
 62
     7
100
AcDbCircle
 10
-56.0327095258527
 20
29.37294004327389
 30
0.0
 40
4.0
100
AcDbArc
 50
270.0
 51
0.0
  0
ARC
  5
2D7
102
{ACAD_REACTORS
330
32B
102
}
330
1F
100
AcDbEntity
  8
1
  6
Continuous
 62
     7
100
AcDbCircle
 10
-72.0327095258527
 20
29.37294004327389
 30
0.0
 40
4.0
100
AcDbArc
 50
180.0
 51
270.0
  0
ARC
  5
2D8
102
{ACAD_REACTORS
330
32B
102
}
330
1F
100
AcDbEntity
  8
1
  6
Continuous
 62
     7
100
AcDbCircle
 10
-72.03270952585281
 20
45.37294004327396
 30
0.0
 40
4.0
100
AcDbArc
 50
90.0
 51
180.0
  0
ARC
  5
2D9
102
{ACAD_REACTORS
330
332
102
}
330
1F
100
AcDbEntity
  8
1
  6
Continuous
 62
     7
100
AcDbCircle
 10
-55.98270952585271
 20
131.1729400432741
 30
0.0
 40
4.00000000000005
100
AcDbArc
 50
0.0
 51
90.0
  0
ARC
  5
2DA
102
{ACAD_REACTORS
330
332
102
}
330
1F
100
AcDbEntity
  8
1
  6
Continuous
 62
     7
100
AcDbCircle
 10
-71.98270952585283
 20
131.1729400432741
 30
0.0
 40
4.0
100
AcDbArc
 50
90.0
 51
180.0
  0
ARC
  5
2DB
102
{ACAD_REACTORS
330
332
102
}
330
1F
100
AcDbEntity
  8
1
  6
Continuous
 62
     7
100
AcDbCircle
 10
-71.98270952585271
 20
115.172940043274
 30
0.0
 40
3.999999999999943
100
AcDbArc
 50
180.0
 51
270.0000000000008
  0
ARC
  5
2DC
102
{ACAD_REACTORS
330
332
102
}
330
1F
100
AcDbEntity
  8
1
  6
Continuous
 62
     7
100
AcDbCircle
 10
-55.98270952585271
 20
115.172940043274
 30
0.0
 40
4.0
100
AcDbArc
 50
270.0
 51
0.0
  0
ARC
  5
2DD
102
{ACAD_REACTORS
330
330
102
}
330
1F
100
AcDbEntity
  8
1
  6
Continuous
 62
     7
100
AcDbCircle
 10
-75.73270952585256
 20
67.7429400432739
 30
0.0
 40
0.2999999999998977
100
AcDbArc
 50
90.00000000007056
 51
180.0000000000217
  0
ARC
  5
2DE
102
{ACAD_REACTORS
330
330
102
}
330
1F
100
AcDbEntity
  8
1
  6
Continuous
 62
     7
100
AcDbCircle
 10
-75.73270952585256
 20
66.04294004327392
 30
0.0
 40
0.3000000000000114
100
AcDbArc
 50
180.0
 51
269.9999999999294
  0
ARC
  5
2DF
102
{ACAD_REACTORS
330
330
102
}
330
1F
100
AcDbEntity
  8
1
  6
Continuous
 62
     7
100
AcDbCircle
 10
-52.33270952585302
 20
66.0429400432738
 30
0.0
 40
0.2999999999998977
100
AcDbArc
 50
270.0000000000529
 51
0.0
  0
ARC
  5
2E0
102
{ACAD_REACTORS
330
330
102
}
330
1F
100
AcDbEntity
  8
1
  6
Continuous
 62
     7
100
AcDbCircle
 10
-52.33270952585302
 20
67.74294004327379
 30
0.0
 40
0.3000000000000327
100
AcDbArc
 50
0.0
 51
90.0
  0
ARC
  5
2E1
102
{ACAD_REACTORS
330
331
102
}
330
1F
100
AcDbEntity
  8
1
  6
Continuous
 62
     7
100
AcDbCircle
 10
-14.33270952585302
 20
67.74294004327379
 30
0.0
 40
0.3000000000000291
100
AcDbArc
 50
0.0
 51
90.0
  0
ARC
  5
2E2
102
{ACAD_REACTORS
330
331
102
}
330
1F
100
AcDbEntity
  8
1
  6
Continuous
 62
     7
100
AcDbCircle
 10
-14.33270952585302
 20
66.0429400432738
 30
0.0
 40
0.2999999999998977
100
AcDbArc
 50
270.0000000000533
 51
0.0
  0
ARC
  5
2E3
102
{ACAD_REACTORS
330
331
102
}
330
1F
100
AcDbEntity
  8
1
  6
Continuous
 62
     7
100
AcDbCircle
 10
-37.73270952585256
 20
66.04294004327392
 30
0.0
 40
0.3000000000000043
100
AcDbArc
 50
180.0
 51
269.9999999999294
  0
ARC
  5
2E4
102
{ACAD_REACTORS
330
331
102
}
330
1F
100
AcDbEntity
  8
1
  6
Continuous
 62
     7
100
AcDbCircle
 10
-37.73270952585256
 20
67.7429400432739
 30
0.0
 40
0.2999999999998977
100
AcDbArc
 50
90.00000000007056
 51
180.0000000000217
  0
MTEXT
  5
2E6
330
1F
100
AcDbEntity
  8
1
 62
     4
100
AcDbMText
 10
-61.78270952585253
 20
127.4818551291339
 30
0.0
 40
1.0
 41
0.0
 71
     5
 72
     1
  1
B
  7
CONVERTER_11
 73
     1
 44
1.32052821128451
  0
MTEXT
  5
2E7
330
1F
100
AcDbEntity
  8
1
 62
     4
100
AcDbMText
 10
-66.28270952585254
 20
127.4818551291339
 30
0.0
 40
1.0
 41
0.0
 71
     5
 72
     1
  1
A
  7
CONVERTER_11
 73
     1
 44
1.32052821128451
  0
MTEXT
  5
2E9
330
1F
100
AcDbEntity
  8
1
 62
     4
100
AcDbMText
 10
-60.13321984789203
 20
114.9407439351835
 30
0.0
 40
1.0
 41
0.0
 71
     5
 72
     1
  1
3
  7
CONVERTER_12
 73
     1
 44
1.32052821128451
  0
MTEXT
  5
2EA
330
1F
100
AcDbEntity
  8
1
 62
     4
100
AcDbMText
 10
-55.63321984789203
 20
117.8407439351835
 30
0.0
 40
1.0
 41
0.0
 71
     5
 72
     1
  1
4
  7
CONVERTER_11
 73
     1
 44
1.32052821128451
  0
MTEXT
  5
2EB
330
1F
100
AcDbEntity
  8
1
 62
     4
100
AcDbMText
 10
-68.53219920381352
 20
119.0407439351835
 30
0.0
 40
1.0
 41
0.0
 71
     5
 72
     1
  1
6
  7
CONVERTER_11
 73
     1
 44
1.32052821128451
  0
MTEXT
  5
2EC
330
1F
100
AcDbEntity
  8
1
 62
     4
100
AcDbMText
 10
-59.53321984789189
 20
119.0407439351835
 30
0.0
 40
1.0
 41
0.0
 71
     5
 72
     1
  1
7
  7
CONVERTER_11
 73
     1
 44
1.32052821128451
  0
MTEXT
  5
2ED
330
1F
100
AcDbEntity
  8
1
 62
     4
100
AcDbMText
 10
-55.63321984789203
 20
119.3407439351835
 30
0.0
 40
1.0
 41
0.0
 71
     5
 72
     1
  1
8
  7
CONVERTER_11
 73
     1
 44
1.32052821128451
  0
MTEXT
  5
2EE
330
1F
100
AcDbEntity
  8
1
 62
     4
100
AcDbMText
 10
-72.33219920381353
 20
123.9407439351835
 30
0.0
 40
1.0
 41
0.0
 71
     5
 72
     1
  1
9
  7
CONVERTER_11
 73
     1
 44
1.32052821128451
  0
MTEXT
  5
2EF
330
1F
100
AcDbEntity
  8
1
 62
     4
100
AcDbMText
 10
-55.5600185084356
 20
128.3845392470866
 30
0.0
 40
1.0
 41
0.0
 71
     5
 72
     1
  1
12
  7
CONVERTER_12
 73
     1
 44
1.32052821128451
  0
MTEXT
  5
2F0
330
1F
100
AcDbEntity
  8
1
 62
     4
100
AcDbMText
 10
-72.43219920381381
 20
119.3407439351835
 30
0.0
 40
1.0
 41
0.0
 71
     5
 72
     1
  1
5
  7
CONVERTER_11
 73
     1
 44
1.32052821128451
  0
MTEXT
  5
2F1
330
1F
100
AcDbEntity
  8
1
 62
     4
100
AcDbMText
 10
-67.93219920381381
 20
114.9407439351835
 30
0.0
 40
1.0
 41
0.0
 71
     5
 72
     1
  1
2
  7
CONVERTER_12
 73
     1
 44
1.32052821128451
  0
MTEXT
  5
2F2
330
1F
100
AcDbEntity
  8
1
 62
     4
100
AcDbMText
 10
-72.50540054327001
 20
128.3845392470866
 30
0.0
 40
1.0
 41
0.0
 71
     5
 72
     1
  1
11
  7
CONVERTER_12
 73
     1
 44
1.32052821128451
  0
MTEXT
  5
2F3
330
1F
100
AcDbEntity
  8
1
 62
     4
100
AcDbMText
 10
-55.733219847892
 20
123.9407439351835
 30
0.0
 40
1.0
 41
0.0
 71
     5
 72
     1
  1
10
  7
CONVERTER_11
 73
     1
 44
1.32052821128451
  0
MTEXT
  5
2F4
330
1F
100
AcDbEntity
  8
1
 62
     4
100
AcDbMText
 10
-72.43219920381352
 20
117.8407439351835
 30
0.0
 40
1.0
 41
0.0
 71
     5
 72
     1
  1
1
  7
CONVERTER_12
 73
     1
 44
1.32052821128451
  0
MTEXT
  5
2F5
330
1F
100
AcDbEntity
  8
1
 62
     4
100
AcDbMText
 10
-59.66001850843561
 20
28.96134083946127
 30
0.0
 40
1.0
 41
0.0
 71
     5
 72
     1
  1
12
  7
CONVERTER_11
 11
-1.0
 21
0.0
 31
0.0
 73
     1
 44
1.32052821128451
  0
MTEXT
  5
2F6
330
1F
100
AcDbEntity
  8
1
 62
     4
100
AcDbMText
 10
-54.83321984789193
 20
36.70513615136429
 30
0.0
 40
1.0
 41
0.0
 71
     5
 72
     1
  1
10
  7
CONVERTER_11
 11
-1.0
 21
0.0
 31
0.0
 73
     1
 44
1.32052821128451
  0
MTEXT
  5
2F7
330
1F
100
AcDbEntity
  8
1
 62
     4
100
AcDbMText
 10
-68.40540054326979
 20
28.96134083946127
 30
0.0
 40
1.0
 41
0.0
 71
     5
 72
     1
  1
11
  7
CONVERTER_11
 11
-1.0
 21
0.0
 31
0.0
 73
     1
 44
1.32052821128451
  0
MTEXT
  5
2F8
330
1F
100
AcDbEntity
  8
1
 62
     4
100
AcDbMText
 10
-73.23219920381345
 20
36.70513615136429
 30
0.0
 40
1.0
 41
0.0
 71
     5
 72
     1
  1
9
  7
CONVERTER_11
 11
-1.0
 21
0.0
 31
0.0
 73
     1
 44
1.32052821128451
  0
MTEXT
  5
2F9
330
1F
100
AcDbEntity
  8
1
 62
     4
100
AcDbMText
 10
-55.03321984789194
 20
41.50513615136418
 30
0.0
 40
1.0
 41
0.0
 71
     5
 72
     1
  1
8
  7
CONVERTER_11
 11
-1.0
 21
0.0
 31
0.0
 73
     1
 44
1.32052821128451
  0
MTEXT
  5
2FA
330
1F
100
AcDbEntity
  8
1
 62
     4
100
AcDbMText
 10
-59.53321984789194
 20
41.50513615136418
 30
0.0
 40
1.0
 41
0.0
 71
     5
 72
     1
  1
7
  7
CONVERTER_11
 11
-1.0
 21
0.0
 31
0.0
 73
     1
 44
1.32052821128451
  0
MTEXT
  5
2FB
330
1F
100
AcDbEntity
  8
1
 62
     4
100
AcDbMText
 10
-68.53219920381346
 20
41.50513615136418
 30
0.0
 40
1.0
 41
0.0
 71
     5
 72
     1
  1
6
  7
CONVERTER_11
 11
-1.0
 21
0.0
 31
0.0
 73
     1
 44
1.32052821128451
  0
MTEXT
  5
2FC
330
1F
100
AcDbEntity
  8
1
 62
     4
100
AcDbMText
 10
-73.03219920381346
 20
41.50513615136418
 30
0.0
 40
1.0
 41
0.0
 71
     5
 72
     1
  1
5
  7
CONVERTER_11
 11
-1.0
 21
0.0
 31
0.0
 73
     1
 44
1.32052821128451
  0
MTEXT
  5
2FD
330
1F
100
AcDbEntity
  8
1
 62
     4
100
AcDbMText
 10
-55.03321984789194
 20
46.00513615136418
 30
0.0
 40
1.0
 41
0.0
 71
     5
 72
     1
  1
4
  7
CONVERTER_11
 11
-1.0
 21
0.0
 31
0.0
 73
     1
 44
1.32052821128451
  0
MTEXT
  5
2FE
330
1F
100
AcDbEntity
  8
1
 62
     4
100
AcDbMText
 10
-59.53321984789194
 20
46.00513615136418
 30
0.0
 40
1.0
 41
0.0
 71
     5
 72
     1
  1
3
  7
CONVERTER_11
 11
-1.0
 21
0.0
 31
0.0
 73
     1
 44
1.32052821128451
  0
MTEXT
  5
2FF
330
1F
100
AcDbEntity
  8
1
 62
     4
100
AcDbMText
 10
-68.53219920381346
 20
46.00513615136418
 30
0.0
 40
1.0
 41
0.0
 71
     5
 72
     1
  1
2
  7
CONVERTER_11
 11
-1.0
 21
0.0
 31
0.0
 73
     1
 44
1.32052821128451
  0
MTEXT
  5
300
330
1F
100
AcDbEntity
  8
1
 62
     4
100
AcDbMText
 10
-73.03219920381346
 20
46.00513615136418
 30
0.0
 40
1.0
 41
0.0
 71
     5
 72
     1
  1
1
  7
CONVERTER_11
 11
-1.0
 21
0.0
 31
0.0
 73
     1
 44
1.32052821128451
  0
MTEXT
  5
302
330
1F
100
AcDbEntity
  8
1
 62
     7
100
AcDbMText
 10
-76.36
 20
6.24999999999999
 30
0.0
 40
2.25
 41
0.0
 71
     4
 72
     1
  1
CQM 12  male insert crimp 12P+\P10A 400/690V 6kV 2 ( 400V 6kV 3 )
  7
CONVERTER_13
 73
     1
 44
0.90036014405762
  0
MTEXT
  5
303
330
1F
100
AcDbEntity
  8
1
 62
     7
100
AcDbMText
 10
-97.0000000000001
 20
75.74999999999994
 30
0.0
 40
2.0
 41
0.0
 71
     5
 72
     1
  1
Diritti riservati      All rights reserved
  7
CONVERTER_13
 11
0.0
 21
1.0
 31
0.0
 73
     1
 44
1.32052821128451
  0
MTEXT
  5
304
330
1F
100
AcDbEntity
  8
1
 62
     7
100
AcDbMText
 10
-88.20000000000003
 20
4.37500000000001
 30
0.0
 40
1.5
 41
0.0
 71
     4
 72
     1
  1
T.Tedeschi
  7
CONVERTER_13
 73
     1
 44
1.32052821128451
  0
MTEXT
  5
305
330
1F
100
AcDbEntity
  8
1
 62
     7
100
AcDbMText
 10
-93.50000000000004
 20
4.37500000000001
 30
0.0
 40
1.5
 41
0.0
 71
     4
 72
     1
  1
Sign.
  7
CONVERTER_13
 73
     1
 44
1.32052821128451
  0
MTEXT
  5
306
330
1F
100
AcDbEntity
  8
1
 62
     7
100
AcDbMText
 10
-88.20000000000003
 20
8.130319710378
 30
0.0
 40
1.5
 41
0.0
 71
     4
 72
     1
  1
20/06/06
  7
CONVERTER_13
 73
     1
 44
1.32052821128451
  0
MTEXT
  5
307
330
1F
100
AcDbEntity
  8
1
 62
     7
100
AcDbMText
 10
-93.50000000000004
 20
8.130319710378
 30
0.0
 40
1.5
 41
0.0
 71
     4
 72
     1
  1
Date
  7
CONVERTER_13
 73
     1
 44
1.32052821128451
  0
MTEXT
  5
308
330
1F
100
AcDbEntity
  8
1
 62
     7
100
AcDbMText
 10
-20.16184965562862
 20
8.130319710378
 30
0.0
 40
1.5
 41
0.0
 71
     5
 72
     1
  1
Scale
  7
CONVERTER_13
 73
     1
 44
1.32052821128451
  0
MTEXT
  5
309
330
1F
100
AcDbEntity
  8
1
 62
     7
100
AcDbMText
 10
-20.16184965562862
 20
5.03031971037803
 30
0.0
 40
2.25
 41
0.0
 71
     5
 72
     1
  1
2:1
  7
CONVERTER_13
 73
     1
 44
1.32052821128451
  0
DIMENSION
  5
314
330
1F
100
AcDbEntity
  8
1
100
AcDbDimension
  2
*D1
 10
-83.62064837331069
 20
102.6929400432739
 30
0.0
 11
-85.44564837331069
 21
82.29294004327392
 31
0.0
 70
    32
  1
<>
 71
     5
 42
-1.0
 53
90.0
  3
ME10_DIM_10
100
AcDbAlignedDimension
 13
-74.5327095258527
 23
61.89294004327391
 33
0.0
 14
-66.5327095258527
 24
102.6929400432739
 34
0.0
 50
90.0
100
AcDbRotatedDimension
  0
DIMENSION
  5
31F
330
1F
100
AcDbEntity
  8
1
100
AcDbDimension
  2
*D2
 10
-74.5327095258527
 20
55.7233076303983
 30
0.0
 11
-64.03270952585268
 21
57.4733076303983
 31
0.0
 70
    32
  1
<>
 71
     5
 42
-1.0
 53
0.00013888888889
  3
ME10_DIM_11
100
AcDbAlignedDimension
 13
-53.53270952585267
 23
61.89294004327391
 33
0.0
 14
-74.5327095258527
 24
61.89294004327391
 34
0.0
100
AcDbRotatedDimension
  0
DIMENSION
  5
32A
330
1F
100
AcDbEntity
  8
1
100
AcDbDimension
  2
*D3
 10
-36.53270952585267
 20
55.7233076303983
 30
0.0
 11
-26.03270952585267
 21
57.4733076303983
 31
0.0
 70
    32
  1
<>
 71
     5
 42
-1.0
 53
0.00013888888889
  3
ME10_DIM_12
100
AcDbAlignedDimension
 13
-15.53270952585267
 23
61.89294004327391
 33
0.0
 14
-36.53270952585267
 24
61.89294004327391
 34
0.0
100
AcDbRotatedDimension
  0
HATCH
  5
32B
330
1F
100
AcDbEntity
  8
1
  6
Continuous
 62
     2
100
AcDbHatch
 10
0.0
 20
0.0
 30
0.0
210
0.0
220
0.0
230
1.0
  2
SOLID
 70
     1
 71
     1
 91
        1
 92
        1
 93
       26
 72
     1
 10
-56.0327095258527
 20
49.37294004327396
 11
-72.03270952585281
 21
49.37294004327396
 72
     2
 10
-72.03270952585281
 20
45.37294004327396
 40
4.0
 50
90.0
 51
180.0
 73
     1
 72
     1
 10
-76.03270952585281
 20
45.37294004327396
 11
-76.0327095258527
 21
29.37294004327389
 72
     2
 10
-72.0327095258527
 20
29.37294004327389
 40
4.0
 50
180.0
 51
270.0
 73
     1
 72
     1
 10
-72.0327095258527
 20
25.37294004327389
 11
-65.51617393953683
 21
25.37294004327389
 72
     2
 10
-64.0327095258527
 20
30.77460670994246
 40
5.601666666668556
 50
105.3565867633151
 51
119.990158258341
 73
     0
 72
     1
 10
-66.8327095258527
 20
25.92294004327362
 11
-66.8327095258527
 21
26.27294004327364
 72
     1
 10
-66.8327095258527
 20
26.27294004327364
 11
-66.23270952585241
 21
26.8729400432739
 72
     1
 10
-66.23270952585241
 20
26.8729400432739
 11
-68.83270952585276
 21
26.87294004327385
 72
     1
 10
-68.83270952585276
 20
26.87294004327385
 11
-71.5327095258527
 21
26.8729400432739
 72
     2
 10
-71.5327095258527
 20
29.8729400432739
 40
3.0
 50
90.0
 51
180.0
 73
     0
 72
     1
 10
-74.5327095258527
 20
29.8729400432739
 11
-74.5327095258527
 21
44.8729400432739
 72
     2
 10
-71.5327095258527
 20
44.8729400432739
 40
3.0
 50
180.0
 51
270.0
 73
     0
 72
     1
 10
-71.5327095258527
 20
47.8729400432739
 11
-56.5327095258527
 21
47.8729400432739
 72
     2
 10
-56.5327095258527
 20
44.8729400432739
 40
3.0
 50
270.0
 51
360.0
 73
     0
 72
     1
 10
-53.5327095258527
 20
44.8729400432739
 11
-53.5327095258527
 21
29.8729400432739
 72
     2
 10
-56.5327095258527
 20
29.8729400432739
 40
3.0
 50
0.0
 51
90.0
 73
     0
 72
     1
 10
-56.5327095258527
 20
26.8729400432739
 11
-59.23270952585266
 21
26.87294004327385
 72
     1
 10
-59.23270952585266
 20
26.87294004327385
 11
-61.83270952585296
 21
26.8729400432739
 72
     1
 10
-61.83270952585296
 20
26.8729400432739
 11
-61.23270952585268
 21
26.27294004327364
 72
     1
 10
-61.23270952585268
 20
26.27294004327364
 11
-61.23270952585268
 21
25.92294004327362
 72
     2
 10
-64.0327095258527
 20
30.77460670994246
 40
5.60166666666855
 50
60.00984174165898
 51
74.64341323668505
 73
     0
 72
     1
 10
-62.54924511216857
 20
25.37294004327389
 11
-56.0327095258527
 21
25.37294004327389
 72
     2
 10
-56.0327095258527
 20
29.37294004327389
 40
4.0
 50
270.0
 51
360.0
 73
     1
 72
     1
 10
-52.0327095258527
 20
29.37294004327389
 11
-52.0327095258527
 21
45.37294004327396
 72
     2
 10
-56.0327095258527
 20
45.37294004327396
 40
4.0
 50
0.0
 51
90.0
 73
     1
 97
       26
330
215
330
2D6
330
21F
330
22F
330
4F
330
55
330
203
330
14F
330
249
330
12B
330
242
330
12A
330
243
330
148
330
248
330
12F
330
14D
330
47
330
4D
330
22E
330
216
330
2D7
330
217
330
2D8
330
214
330
2D5
 75
     0
 76
     1
 98
        1
 10
0.0
 20
0.0
  0
HATCH
  5
32C
330
1F
100
AcDbEntity
  8
1
  6
Continuous
 62
     7
100
AcDbHatch
 10
0.0
 20
0.0
 30
0.0
210
0.0
220
0.0
230
1.0
  2
SOLID
 70
     1
 71
     1
 91
        1
 92
        1
 93
        5
 72
     1
 10
-10.99518298896203
 20
7.07663469546833
 11
-10.99518298896203
 21
5.519625958631651
 72
     1
 10
-10.99518298896203
 20
5.519625958631651
 11
-10.99518298896203
 21
5.423365304531616
 72
     2
 10
-11.16184965562866
 20
5.423365304531616
 40
0.1666666666666785
 50
0.0
 51
180.0
 73
     0
 72
     1
 10
-11.32851632229534
 20
5.423365304531616
 11
-11.32851632229534
 21
7.07663469546833
 72
     2
 10
-11.16184965562866
 20
7.07663469546833
 40
0.1666666666666305
 50
180.0
 51
360.0
 73
     0
 97
        5
330
98
330
99
330
238
330
9A
330
237
 75
     0
 76
     1
 98
        1
 10
0.0
 20
0.0
  0
HATCH
  5
32D
330
1F
100
AcDbEntity
  8
1
  6
Continuous
 62
     7
100
AcDbHatch
 10
0.0
 20
0.0
 30
0.0
210
0.0
220
0.0
230
1.0
  2
SOLID
 70
     1
 71
     1
 91
        1
 92
        1
 93
       16
 72
     2
 10
-9.862699882724371
 20
7.865608656017284
 40
0.1324831062376677
 50
30.0000000000134
 51
180.0
 73
     1
 72
     1
 10
-9.995182988962029
 20
7.865608656017284
 11
-9.995182988962029
 21
6.250000000000001
 72
     1
 10
-9.995182988962029
 20
6.250000000000001
 11
-9.995182988962029
 21
5.423792536316456
 72
     2
 10
-9.828516322295343
 20
5.423792536316456
 40
0.1666666666666856
 50
180.0
 51
360.0
 73
     1
 72
     1
 10
-9.661849655628657
 20
5.423792536316456
 11
-9.661849655628657
 21
6.250000000000001
 72
     1
 10
-9.661849655628657
 20
6.250000000000001
 11
-9.661849655628657
 21
7.116025403784421
 72
     1
 10
-9.661849655628657
 20
7.116025403784421
 11
-9.234018439277406
 21
6.375000000000001
 72
     2
 10
-9.161849655628657
 20
6.41666666666663
 40
0.083333333333354
 50
209.9999999999617
 51
330.0000000000188
 73
     1
 72
     1
 10
-9.089680871979965
 20
6.375000000000001
 11
-8.661849655628657
 21
7.116025403784421
 72
     1
 10
-8.661849655628657
 20
7.116025403784421
 11
-8.661849655628657
 21
6.250000000000001
 72
     1
 10
-8.661849655628657
 20
6.250000000000001
 11
-8.661849655628657
 21
4.654134535300899
 72
     2
 10
-8.495182988961972
 20
4.654134535300899
 40
0.1666666666666856
 50
180.0
 51
360.0
 73
     1
 72
     1
 10
-8.328516322295343
 20
4.654134535300899
 11
-8.328516322295343
 21
7.865608656017284
 72
     2
 10
-8.460999428533
 20
7.865608656017284
 40
0.1324831062376575
 50
0.0
 51
149.9999999999743
 73
     1
 72
     1
 10
-8.575733164107021
 20
7.931850209136145
 11
-9.161849655628657
 21
6.91666666666663
 72
     1
 10
-9.161849655628657
 20
6.91666666666663
 11
-9.747966147150294
 21
7.931850209136145
 97
       16
330
93
330
234
330
92
330
233
330
91
330
85
330
86
330
2CB
330
87
330
88
330
90
330
232
330
8F
330
8D
330
231
330
8E
 75
     0
 76
     1
 98
        1
 10
0.0
 20
0.0
  0
HATCH
  5
32E
330
1F
100
AcDbEntity
  8
1
  6
Continuous
 62
     7
100
AcDbHatch
 10
0.0
 20
0.0
 30
0.0
210
0.0
220
0.0
230
1.0
  2
SOLID
 70
     1
 71
     1
 91
        1
 92
        1
 93
        7
 72
     1
 10
-10.32851632229534
 20
7.461250080083684
 11
-10.32851632229534
 21
5.135010574016349
 72
     1
 10
-10.32851632229534
 20
5.135010574016349
 11
-9.245229246713734
 21
4.510037261180799
 72
     2
 10
-9.328516322295343
 20
4.365672996839352
 40
0.1666666666666862
 50
299.9816393688508
 51
479.9816393688504
 73
     0
 72
     1
 10
-9.411803397876952
 20
4.221308732497904
 11
-10.4950904734585
 21
4.846282045333454
 72
     2
 10
-10.32851632229534
 20
5.135010574016349
 40
0.3333333333333215
 50
119.9816393688422
 51
179.9999999999896
 73
     0
 72
     1
 10
-10.66184965562866
 20
5.135010574016289
 11
-10.66184965562866
 21
7.461250080083684
 72
     2
 10
-10.49518298896203
 20
7.461250080083684
 40
0.1666666666666909
 50
180.0
 51
360.0
 73
     0
 97
        7
330
95
330
96
330
236
330
97
330
2CC
330
94
330
235
 75
     0
 76
     1
 98
        1
 10
0.0
 20
0.0
  0
HATCH
  5
32F
330
1F
100
AcDbEntity
  8
1
  6
Continuous
 62
     7
100
AcDbHatch
 10
0.0
 20
0.0
 30
0.0
210
0.0
220
0.0
230
1.0
  2
SOLID
 70
     1
 71
     1
 91
        1
 92
        1
 93
       14
 72
     1
 10
-7.745229246713734
 20
7.605614344425136
 11
-7.078562580047105
 21
7.22099895980972
 72
     2
 10
-7.161849655628657
 20
7.07663469546833
 40
0.1666666666666878
 50
299.9816393688436
 51
479.9816393688502
 73
     0
 72
     1
 10
-7.245136731210266
 20
6.93227043112688
 11
-7.661849655628657
 21
7.17268173367597
 72
     1
 10
-7.661849655628657
 20
7.17268173367597
 11
-7.661849655628657
 21
6.41666666666663
 72
     1
 10
-7.661849655628657
 20
6.41666666666663
 11
-7.161849655628657
 21
6.41666666666663
 72
     2
 10
-7.161849655628657
 20
6.250000000000001
 40
0.1666666666666856
 50
270.0
 51
450.0
 73
     0
 72
     1
 10
-7.161849655628657
 20
6.083333333333315
 11
-7.661849655628657
 21
6.083333333333315
 72
     1
 10
-7.661849655628657
 20
6.083333333333315
 11
-7.661849655628657
 21
5.32731826632397
 72
     1
 10
-7.661849655628657
 20
5.32731826632397
 11
-7.245136731210266
 21
5.56772956887312
 72
     2
 10
-7.161849655628657
 20
5.423365304531616
 40
0.1666666666666609
 50
240.018360631159
 51
420.0183606311671
 73
     0
 72
     1
 10
-7.078562580047105
 20
5.279001040190164
 11
-7.745229246713734
 21
4.894385655574866
 72
     2
 10
-7.828516322295343
 20
5.038749919916314
 40
0.1666666666666288
 50
60.01836063114938
 51
180.0
 73
     0
 72
     1
 10
-7.995182988961972
 20
5.038749919916314
 11
-7.995182988961972
 21
7.461250080083684
 72
     2
 10
-7.828516322295343
 20
7.461250080083684
 40
0.1666666666666885
 50
180.0
 51
299.98163936885
 73
     0
 97
       14
330
9B
330
239
330
9C
330
9D
330
9E
330
23A
330
9F
330
A0
330
A1
330
23B
330
A2
330
2D0
330
A3
330
2CF
 75
     0
 76
     1
 98
        1
 10
0.0
 20
0.0
  0
HATCH
  5
330
330
1F
100
AcDbEntity
  8
1
  6
Continuous
 62
     2
100
AcDbHatch
 10
0.0
 20
0.0
 30
0.0
210
0.0
220
0.0
230
1.0
  2
SOLID
 70
     1
 71
     1
 91
        1
 92
        1
 93
        8
 72
     1
 10
-52.33270952585302
 20
68.0429400432738
 11
-75.73270952585293
 21
68.0429400432738
 72
     2
 10
-75.73270952585256
 20
67.7429400432739
 40
0.2999999999998977
 50
90.00000000007056
 51
180.0000000000217
 73
     1
 72
     1
 10
-76.03270952585282
 20
67.74294004327379
 11
-76.03270952585257
 21
66.04294004327392
 72
     2
 10
-75.73270952585256
 20
66.04294004327392
 40
0.3000000000000114
 50
180.0
 51
269.9999999999294
 73
     1
 72
     1
 10
-75.73270952585293
 20
65.74294004327379
 11
-52.33270952585274
 21
65.7429400432739
 72
     2
 10
-52.33270952585302
 20
66.0429400432738
 40
0.2999999999998977
 50
270.0000000000529
 51
360.0
 73
     1
 72
     1
 10
-52.03270952585299
 20
66.0429400432738
 11
-52.03270952585299
 21
67.74294004327379
 72
     2
 10
-52.33270952585302
 20
67.74294004327379
 40
0.3000000000000327
 50
0.0
 51
90.0
 73
     1
 97
        8
330
21C
330
2DD
330
21D
330
2DE
330
21B
330
2DF
330
21E
330
2E0
 75
     0
 76
     1
 98
        1
 10
0.0
 20
0.0
  0
HATCH
  5
331
330
1F
100
AcDbEntity
  8
1
  6
Continuous
 62
     2
100
AcDbHatch
 10
0.0
 20
0.0
 30
0.0
210
0.0
220
0.0
230
1.0
  2
SOLID
 70
     1
 71
     1
 91
        1
 92
        1
 93
        8
 72
     1
 10
-14.33270952585302
 20
68.0429400432738
 11
-37.73270952585293
 21
68.0429400432738
 72
     2
 10
-37.73270952585256
 20
67.7429400432739
 40
0.2999999999998977
 50
90.00000000007056
 51
180.0000000000217
 73
     1
 72
     1
 10
-38.03270952585282
 20
67.74294004327379
 11
-38.03270952585257
 21
66.04294004327392
 72
     2
 10
-37.73270952585256
 20
66.04294004327392
 40
0.3000000000000043
 50
180.0
 51
269.9999999999294
 73
     1
 72
     1
 10
-37.73270952585293
 20
65.74294004327379
 11
-14.33270952585274
 21
65.7429400432739
 72
     2
 10
-14.33270952585302
 20
66.0429400432738
 40
0.2999999999998977
 50
270.0000000000533
 51
360.0
 73
     1
 72
     1
 10
-14.03270952585299
 20
66.0429400432738
 11
-14.03270952585299
 21
67.74294004327379
 72
     2
 10
-14.33270952585302
 20
67.74294004327379
 40
0.3000000000000291
 50
0.0
 51
90.0
 73
     1
 97
        8
330
222
330
2E4
330
221
330
2E3
330
223
330
2E2
330
220
330
2E1
 75
     0
 76
     1
 98
        1
 10
0.0
 20
0.0
  0
HATCH
  5
332
330
1F
100
AcDbEntity
  8
1
  6
Continuous
 62
     2
100
AcDbHatch
 10
0.0
 20
0.0
 30
0.0
210
0.0
220
0.0
230
1.0
  2
SOLID
 70
     1
 71
     1
 91
        2
 92
        1
 93
        8
 72
     2
 10
-55.98270952585271
 20
131.1729400432741
 40
4.00000000000005
 50
0.0
 51
90.0
 73
     1
 72
     1
 10
-55.98270952585271
 20
135.1729400432741
 11
-71.98270952585283
 21
135.1729400432741
 72
     2
 10
-71.98270952585283
 20
131.1729400432741
 40
4.0
 50
90.0
 51
180.0
 73
     1
 72
     1
 10
-75.98270952585283
 20
131.1729400432741
 11
-75.98270952585266
 21
115.172940043274
 72
     2
 10
-71.98270952585271
 20
115.172940043274
 40
3.999999999999943
 50
180.0
 51
270.0000000000008
 73
     1
 72
     1
 10
-71.98270952585266
 20
111.172940043274
 11
-55.98270952585271
 21
111.172940043274
 72
     2
 10
-55.98270952585271
 20
115.172940043274
 40
4.0
 50
270.0
 51
360.0
 73
     1
 72
     1
 10
-51.98270952585271
 20
115.172940043274
 11
-51.98270952585266
 21
131.1729400432741
 97
        8
330
2D9
330
219
330
2DA
330
21A
330
2DB
330
227
330
2DC
330
218
 92
       16
 93
        8
 72
     2
 10
-56.5327095258527
 20
115.6729400432739
 40
3.0
 50
270.0
 51
360.0
 73
     1
 72
     1
 10
-53.5327095258527
 20
115.6729400432739
 11
-53.5327095258527
 21
130.6729400432739
 72
     2
 10
-56.5327095258527
 20
130.6729400432739
 40
3.0
 50
0.0
 51
90.0
 73
     1
 72
     1
 10
-56.5327095258527
 20
133.6729400432739
 11
-71.5327095258527
 21
133.6729400432739
 72
     2
 10
-71.5327095258527
 20
130.6729400432739
 40
3.0
 50
90.0
 51
180.0
 73
     1
 72
     1
 10
-74.5327095258527
 20
130.6729400432739
 11
-74.5327095258527
 21
115.6729400432739
 72
     2
 10
-71.5327095258527
 20
115.6729400432739
 40
3.0
 50
180.0
 51
270.0000000000005
 73
     1
 72
     1
 10
-71.53270952585267
 20
112.6729400432739
 11
-56.5327095258527
 21
112.6729400432739
 97
        8
330
25E
330
17F
330
264
330
189
330
26D
330
197
330
270
330
195
 75
     0
 76
     1
 98
        1
 10
0.0
 20
0.0
  0
ENDSEC
  0
SECTION
  2
OBJECTS
  0
DICTIONARY
  5
C
330
0
100
AcDbDictionary
281
     1
  3
ACAD_GROUP
350
D
  3
ACAD_LAYOUT
350
1A
  3
ACAD_MATERIAL
350
3B
  3
ACAD_MLEADERSTYLE
350
335
  3
ACAD_MLINESTYLE
350
17
  3
ACAD_PLOTSETTINGS
350
19
  3
ACAD_PLOTSTYLENAME
350
E
  3
ACAD_VISUALSTYLE
350
2A
  3
AcDbVariableDictionary
350
333
  0
DICTIONARY
  5
D
102
{ACAD_REACTORS
330
C
102
}
330
C
100
AcDbDictionary
281
     1
  0
DICTIONARY
  5
1A
102
{ACAD_REACTORS
330
C
102
}
330
C
100
AcDbDictionary
281
     1
  3
Layout1
350
1E
  3
Layout2
350
26
  3
Model
350
22
  0
DICTIONARY
  5
3B
102
{ACAD_REACTORS
330
C
102
}
330
C
100
AcDbDictionary
281
     1
  3
ByBlock
350
3D
  3
ByLayer
350
3C
  3
Global
350
3E
  0
DICTIONARY
  5
335
102
{ACAD_REACTORS
330
C
102
}
330
C
100
AcDbDictionary
281
     1
  0
DICTIONARY
  5
17
102
{ACAD_REACTORS
330
C
102
}
330
C
100
AcDbDictionary
281
     1
  3
Standard
350
18
  0
DICTIONARY
  5
19
102
{ACAD_REACTORS
330
C
102
}
330
C
100
AcDbDictionary
281
     1
  0
ACDBDICTIONARYWDFLT
  5
E
102
{ACAD_REACTORS
330
C
102
}
330
C
100
AcDbDictionary
281
     1
  3
Normal
350
F
100
AcDbDictionaryWithDefault
340
F
  0
DICTIONARY
  5
2A
102
{ACAD_REACTORS
330
C
102
}
330
C
100
AcDbDictionary
281
     1
  3
2dWireframe
350
2F
  3
3D Hidden
350
31
  3
3dWireframe
350
30
  3
Basic
350
32
  3
Brighten
350
36
  3
ColorChange
350
3A
  3
Conceptual
350
34
  3
Dim
350
35
  3
Facepattern
350
39
  3
Flat
350
2B
  3
FlatWithEdges
350
2C
  3
Gouraud
350
2D
  3
GouraudWithEdges
350
2E
  3
Linepattern
350
38
  3
Realistic
350
33
  3
Thicken
350
37
  0
DICTIONARY
  5
333
102
{ACAD_REACTORS
330
C
102
}
330
C
100
AcDbDictionary
281
     1
  3
DIMASSOC
350
336
  3
HIDETEXT
350
337
  0
LAYOUT
  5
1E
102
{ACAD_REACTORS
330
1A
102
}
330
1A
100
AcDbPlotSettings
  1

  2
none_device
  4

  6

 40
0.0
 41
0.0
 42
0.0
 43
0.0
 44
0.0
 45
0.0
 46
0.0
 47
0.0
 48
0.0
 49
0.0
140
0.0
141
0.0
142
1.0
143
1.0
 70
   688
 72
     0
 73
     0
 74
     5
  7

 75
    16
147
1.0
148
0.0
149
0.0
100
AcDbLayout
  1
Layout1
 70
     1
 71
     1
 10
0.0
 20
0.0
 11
12.0
 21
9.0
 12
0.0
 22
0.0
 32
0.0
 14
1.00000000000000E+20
 24
1.00000000000000E+20
 34
1.00000000000000E+20
 15
-1.00000000000000E+20
 25
-1.00000000000000E+20
 35
-1.00000000000000E+20
146
0.0
 13
0.0
 23
0.0
 33
0.0
 16
1.0
 26
0.0
 36
0.0
 17
0.0
 27
1.0
 37
0.0
 76
     0
330
1B
  0
LAYOUT
  5
26
102
{ACAD_REACTORS
330
1A
102
}
330
1A
100
AcDbPlotSettings
  1

  2
none_device
  4

  6

 40
0.0
 41
0.0
 42
0.0
 43
0.0
 44
0.0
 45
0.0
 46
0.0
 47
0.0
 48
0.0
 49
0.0
140
0.0
141
0.0
142
1.0
143
1.0
 70
   688
 72
     0
 73
     0
 74
     5
  7

 75
    16
147
1.0
148
0.0
149
0.0
100
AcDbLayout
  1
Layout2
 70
     1
 71
     2
 10
0.0
 20
0.0
 11
0.0
 21
0.0
 12
0.0
 22
0.0
 32
0.0
 14
0.0
 24
0.0
 34
0.0
 15
0.0
 25
0.0
 35
0.0
146
0.0
 13
0.0
 23
0.0
 33
0.0
 16
1.0
 26
0.0
 36
0.0
 17
0.0
 27
1.0
 37
0.0
 76
     0
330
23
  0
LAYOUT
  5
22
102
{ACAD_REACTORS
330
1A
102
}
330
1A
100
AcDbPlotSettings
  1

  2
none_device
  4

  6

 40
0.0
 41
0.0
 42
0.0
 43
0.0
 44
0.0
 45
0.0
 46
0.0
 47
0.0
 48
0.0
 49
0.0
140
0.0
141
0.0
142
1.0
143
1.0
 70
  1712
 72
     0
 73
     0
 74
     0
  7

 75
     0
147
1.0
148
0.0
149
0.0
100
AcDbLayout
  1
Model
 70
     1
 71
     0
 10
0.0
 20
0.0
 11
12.0
 21
9.0
 12
0.0
 22
0.0
 32
0.0
 14
-105.0000000000001
 24
0.0
 34
0.0
 15
0.0
 25
148.5000000000001
 35
0.0
146
0.0
 13
0.0
 23
0.0
 33
0.0
 16
1.0
 26
0.0
 36
0.0
 17
0.0
 27
1.0
 37
0.0
 76
     0
330
1F
331
29
  0
MATERIAL
  5
3D
102
{ACAD_REACTORS
330
3B
102
}
102
{ACAD_XDICTIONARY
360
35A
102
}
330
3B
100
AcDbMaterial
  1
ByBlock
  0
MATERIAL
  5
3C
102
{ACAD_REACTORS
330
3B
102
}
102
{ACAD_XDICTIONARY
360
358
102
}
330
3B
100
AcDbMaterial
  1
ByLayer
  0
MATERIAL
  5
3E
102
{ACAD_REACTORS
330
3B
102
}
102
{ACAD_XDICTIONARY
360
35C
102
}
330
3B
100
AcDbMaterial
  1
Global
  0
MLINESTYLE
  5
18
102
{ACAD_REACTORS
330
17
102
}
330
17
100
AcDbMlineStyle
  2
Standard
 70
     0
  3

 62
   256
 51
90.0
 52
90.0
 71
     2
 49
0.5
 62
   256
  6
BYLAYER
 49
-0.5
 62
   256
  6
BYLAYER
  0
ACDBPLACEHOLDER
  5
F
102
{ACAD_REACTORS
330
E
102
}
330
E
  0
VISUALSTYLE
  5
2F
102
{ACAD_REACTORS
330
2A
102
}
102
{ACAD_XDICTIONARY
360
340
102
}
330
2A
100
AcDbVisualStyle
  2
2dWireframe
 70
     4
 71
     0
 72
     2
 73
     0
 90
        0
 40
-0.6
 41
-30.0
 62
     5
 63
     7
 74
     1
 91
        4
 64
     7
 65
   257
 75
     1
175
     1
 42
1.0
 92
        0
 66
   257
 43
1.0
 76
     1
 77
     6
 78
     2
 67
     7
 79
     5
170
     0
171
     0
290
     0
174
     0
 93
        1
 44
0.0
173
     0
291
     0
 45
0.0
1001
ACAD
1000
AcDbSavedByObjectVersion
1070
     0
  0
VISUALSTYLE
  5
31
102
{ACAD_REACTORS
330
2A
102
}
102
{ACAD_XDICTIONARY
360
344
102
}
330
2A
100
AcDbVisualStyle
  2
3D Hidden
 70
     6
 71
     1
 72
     2
 73
     2
 90
        0
 40
-0.6
 41
-30.0
 62
     5
 63
     7
 74
     2
 91
        2
 64
     7
 65
   257
 75
     2
175
     1
 42
40.0
 92
        0
 66
   257
 43
1.0
 76
     1
 77
     6
 78
     2
 67
     7
 79
     3
170
     0
171
     0
290
     0
174
     0
 93
        1
 44
0.0
173
     0
291
     0
 45
0.0
1001
ACAD
1000
AcDbSavedByObjectVersion
1070
     0
  0
VISUALSTYLE
  5
30
102
{ACAD_REACTORS
330
2A
102
}
102
{ACAD_XDICTIONARY
360
342
102
}
330
2A
100
AcDbVisualStyle
  2
3dWireframe
 70
     5
 71
     0
 72
     2
 73
     0
 90
        0
 40
-0.6
 41
-30.0
 62
     5
 63
     7
 74
     1
 91
        4
 64
     7
 65
   257
 75
     1
175
     1
 42
1.0
 92
        0
 66
   257
 43
1.0
 76
     1
 77
     6
 78
     2
 67
     7
 79
     5
170
     0
171
     0
290
     0
174
     0
 93
        1
 44
0.0
173
     0
291
     0
 45
0.0
1001
ACAD
1000
AcDbSavedByObjectVersion
1070
     0
  0
VISUALSTYLE
  5
32
102
{ACAD_REACTORS
330
2A
102
}
102
{ACAD_XDICTIONARY
360
346
102
}
330
2A
100
AcDbVisualStyle
  2
Basic
 70
     7
 71
     1
 72
     0
 73
     1
 90
        0
 40
-0.6
 41
-30.0
 62
     5
 63
     7
 74
     0
 91
        4
 64
     7
 65
   257
 75
     1
175
     1
 42
1.0
 92
        8
 66
     7
 43
1.0
 76
     1
 77
     6
 78
     2
 67
     7
 79
     5
170
     0
171
     0
290
     0
174
     0
 93
        1
 44
0.0
173
     0
291
     1
 45
0.0
1001
ACAD
1000
AcDbSavedByObjectVersion
1070
     0
  0
VISUALSTYLE
  5
36
102
{ACAD_REACTORS
330
2A
102
}
102
{ACAD_XDICTIONARY
360
34E
102
}
330
2A
100
AcDbVisualStyle
  2
Brighten
 70
    12
 71
     2
 72
     2
 73
     0
 90
        0
 40
-0.6
 41
-30.0
 62
     5
 63
     7
 74
     1
 91
        4
 64
     7
 65
   257
 75
     1
175
     1
 42
1.0
 92
        8
 66
     7
 43
1.0
 76
     1
 77
     6
 78
     2
 67
     7
 79
     5
170
     0
171
     0
290
     0
174
     0
 93
        1
 44
50.0
173
     0
291
     1
 45
0.0
1001
ACAD
1000
AcDbSavedByObjectVersion
1070
     0
  0
VISUALSTYLE
  5
3A
102
{ACAD_REACTORS
330
2A
102
}
102
{ACAD_XDICTIONARY
360
356
102
}
330
2A
100
AcDbVisualStyle
  2
ColorChange
 70
    16
 71
     2
 72
     2
 73
     3
 90
        0
 40
-0.6
 41
-30.0
 62
     5
 63
     8
 74
     1
 91
        4
 64
     7
 65
   257
 75
     1
175
     1
 42
1.0
 92
        8
 66
     8
 43
1.0
 76
     1
 77
     6
 78
     2
 67
     7
 79
     5
170
     0
171
     0
290
     0
174
     0
 93
        1
 44
0.0
173
     0
291
     1
 45
0.0
1001
ACAD
1000
AcDbSavedByObjectVersion
1070
     0
  0
VISUALSTYLE
  5
34
102
{ACAD_REACTORS
330
2A
102
}
102
{ACAD_XDICTIONARY
360
34A
102
}
330
2A
100
AcDbVisualStyle
  2
Conceptual
 70
     9
 71
     3
 72
     2
 73
     0
 90
        0
 40
-0.6
 41
-30.0
 62
     5
 63
     7
 74
     2
 91
        2
 64
     7
 65
   257
 75
     1
175
     1
 42
40.0
 92
        8
 66
     7
 43
1.0
 76
     1
 77
     6
 78
     2
 67
     7
 79
     3
170
     0
171
     0
290
     0
174
     0
 93
        1
 44
0.0
173
     0
291
     0
 45
0.0
1001
ACAD
1000
AcDbSavedByObjectVersion
1070
     0
  0
VISUALSTYLE
  5
35
102
{ACAD_REACTORS
330
2A
102
}
102
{ACAD_XDICTIONARY
360
34C
102
}
330
2A
100
AcDbVisualStyle
  2
Dim
 70
    11
 71
     2
 72
     2
 73
     0
 90
        0
 40
-0.6
 41
-30.0
 62
     5
 63
     7
 74
     1
 91
        4
 64
     7
 65
   257
 75
     1
175
     1
 42
1.0
 92
        8
 66
     7
 43
1.0
 76
     1
 77
     6
 78
     2
 67
     7
 79
     5
170
     0
171
     0
290
     0
174
     0
 93
        1
 44
-50.0
173
     0
291
     1
 45
0.0
1001
ACAD
1000
AcDbSavedByObjectVersion
1070
     0
  0
VISUALSTYLE
  5
39
102
{ACAD_REACTORS
330
2A
102
}
102
{ACAD_XDICTIONARY
360
354
102
}
330
2A
100
AcDbVisualStyle
  2
Facepattern
 70
    15
 71
     2
 72
     2
 73
     0
 90
        0
 40
-0.6
 41
-30.0
 62
     5
 63
     7
 74
     1
 91
        4
 64
     7
 65
   257
 75
     1
175
     1
 42
1.0
 92
        8
 66
     7
 43
1.0
 76
     1
 77
     6
 78
     2
 67
     7
 79
     5
170
     0
171
     0
290
     0
174
     0
 93
        1
 44
0.0
173
     0
291
     1
 45
0.0
1001
ACAD
1000
AcDbSavedByObjectVersion
1070
     0
  0
VISUALSTYLE
  5
2B
102
{ACAD_REACTORS
330
2A
102
}
102
{ACAD_XDICTIONARY
360
338
102
}
330
2A
100
AcDbVisualStyle
  2
Flat
 70
     0
 71
     2
 72
     1
 73
     1
 90
        2
 40
-0.6
 41
30.0
 62
     5
 63
     7
 74
     0
 91
        4
 64
     7
 65
   257
 75
     1
175
     1
 42
1.0
 92
        8
 66
     7
 43
1.0
 76
     1
 77
     6
 78
     2
 67
     7
 79
     5
170
     0
171
     0
290
     0
174
     0
 93
       13
 44
0.0
173
     0
291
     1
 45
0.0
1001
ACAD
1000
AcDbSavedByObjectVersion
1070
     0
  0
VISUALSTYLE
  5
2C
102
{ACAD_REACTORS
330
2A
102
}
102
{ACAD_XDICTIONARY
360
33A
102
}
330
2A
100
AcDbVisualStyle
  2
FlatWithEdges
 70
     1
 71
     2
 72
     1
 73
     1
 90
        2
 40
-0.6
 41
30.0
 62
     5
 63
     7
 74
     1
 91
        4
 64
     7
 65
   257
 75
     1
175
     1
 42
1.0
 92
        0
 66
   257
 43
1.0
 76
     1
 77
     6
 78
     2
 67
     7
 79
     5
170
     0
171
     0
290
     0
174
     0
 93
       13
 44
0.0
173
     0
291
     1
 45
0.0
1001
ACAD
1000
AcDbSavedByObjectVersion
1070
     0
  0
VISUALSTYLE
  5
2D
102
{ACAD_REACTORS
330
2A
102
}
102
{ACAD_XDICTIONARY
360
33C
102
}
330
2A
100
AcDbVisualStyle
  2
Gouraud
 70
     2
 71
     2
 72
     2
 73
     1
 90
        2
 40
-0.6
 41
30.0
 62
     5
 63
     7
 74
     0
 91
        4
 64
     7
 65
   257
 75
     1
175
     1
 42
1.0
 92
        0
 66
     7
 43
1.0
 76
     1
 77
     6
 78
     2
 67
     7
 79
     5
170
     0
171
     0
290
     0
174
     0
 93
       13
 44
0.0
173
     0
291
     1
 45
0.0
1001
ACAD
1000
AcDbSavedByObjectVersion
1070
     0
  0
VISUALSTYLE
  5
2E
102
{ACAD_REACTORS
330
2A
102
}
102
{ACAD_XDICTIONARY
360
33E
102
}
330
2A
100
AcDbVisualStyle
  2
GouraudWithEdges
 70
     3
 71
     2
 72
     2
 73
     1
 90
        2
 40
-0.6
 41
30.0
 62
     5
 63
     7
 74
     1
 91
        4
 64
     7
 65
   257
 75
     1
175
     1
 42
1.0
 92
        0
 66
   257
 43
1.0
 76
     1
 77
     6
 78
     2
 67
     7
 79
     5
170
     0
171
     0
290
     0
174
     0
 93
       13
 44
0.0
173
     0
291
     1
 45
0.0
1001
ACAD
1000
AcDbSavedByObjectVersion
1070
     0
  0
VISUALSTYLE
  5
38
102
{ACAD_REACTORS
330
2A
102
}
102
{ACAD_XDICTIONARY
360
352
102
}
330
2A
100
AcDbVisualStyle
  2
Linepattern
 70
    14
 71
     2
 72
     2
 73
     0
 90
        0
 40
-0.6
 41
-30.0
 62
     5
 63
     7
 74
     1
 91
        4
 64
     7
 65
   257
 75
     7
175
     7
 42
1.0
 92
        8
 66
     7
 43
1.0
 76
     1
 77
     6
 78
     2
 67
     7
 79
     5
170
     0
171
     0
290
     0
174
     0
 93
        1
 44
0.0
173
     0
291
     1
 45
0.0
1001
ACAD
1000
AcDbSavedByObjectVersion
1070
     0
  0
VISUALSTYLE
  5
33
102
{ACAD_REACTORS
330
2A
102
}
102
{ACAD_XDICTIONARY
360
348
102
}
330
2A
100
AcDbVisualStyle
  2
Realistic
 70
     8
 71
     2
 72
     2
 73
     0
 90
        0
 40
-0.6
 41
-30.0
 62
     5
 63
     7
 74
     1
 91
        0
 64
     7
 65
   257
 75
     1
175
     1
 42
1.0
 92
        8
 66
     8
 43
1.0
 76
     1
 77
     6
 78
     2
 67
     7
 79
     5
170
     0
171
     0
290
     0
174
     0
 93
       13
 44
0.0
173
     0
291
     0
 45
0.0
1001
ACAD
1000
AcDbSavedByObjectVersion
1070
     0
  0
VISUALSTYLE
  5
37
102
{ACAD_REACTORS
330
2A
102
}
102
{ACAD_XDICTIONARY
360
350
102
}
330
2A
100
AcDbVisualStyle
  2
Thicken
 70
    13
 71
     2
 72
     2
 73
     0
 90
        0
 40
-0.6
 41
-30.0
 62
     5
 63
     7
 74
     1
 91
        4
 64
     7
 65
   257
 75
     1
175
     1
 42
1.0
 92
       12
 66
     7
 43
1.0
 76
     1
 77
     6
 78
     2
 67
     7
 79
     5
170
     0
171
     0
290
     0
174
     0
 93
        1
 44
0.0
173
     0
291
     1
 45
0.0
1001
ACAD
1000
AcDbSavedByObjectVersion
1070
     0
  0
DICTIONARYVAR
  5
336
102
{ACAD_REACTORS
330
333
102
}
330
333
100
DictionaryVariables
280
     0
  1
2
  0
DICTIONARYVAR
  5
337
102
{ACAD_REACTORS
330
333
102
}
330
333
100
DictionaryVariables
280
     0
  1
1
  0
DICTIONARY
  5
35A
330
3D
100
AcDbDictionary
280
     1
281
     1
  3
ACAD_XREC_ROUNDTRIP
360
35B
  0
DICTIONARY
  5
358
330
3C
100
AcDbDictionary
280
     1
281
     1
  3
ACAD_XREC_ROUNDTRIP
360
359
  0
DICTIONARY
  5
35C
330
3E
100
AcDbDictionary
280
     1
281
     1
  3
ACAD_XREC_ROUNDTRIP
360
35D
  0
DICTIONARY
  5
340
330
2F
100
AcDbDictionary
280
     1
281
     1
  3
ACAD_XREC_ROUNDTRIP
360
341
  0
DICTIONARY
  5
344
330
31
100
AcDbDictionary
280
     1
281
     1
  3
ACAD_XREC_ROUNDTRIP
360
345
  0
DICTIONARY
  5
342
330
30
100
AcDbDictionary
280
     1
281
     1
  3
ACAD_XREC_ROUNDTRIP
360
343
  0
DICTIONARY
  5
346
330
32
100
AcDbDictionary
280
     1
281
     1
  3
ACAD_XREC_ROUNDTRIP
360
347
  0
DICTIONARY
  5
34E
330
36
100
AcDbDictionary
280
     1
281
     1
  3
ACAD_XREC_ROUNDTRIP
360
34F
  0
DICTIONARY
  5
356
330
3A
100
AcDbDictionary
280
     1
281
     1
  3
ACAD_XREC_ROUNDTRIP
360
357
  0
DICTIONARY
  5
34A
330
34
100
AcDbDictionary
280
     1
281
     1
  3
ACAD_XREC_ROUNDTRIP
360
34B
  0
DICTIONARY
  5
34C
330
35
100
AcDbDictionary
280
     1
281
     1
  3
ACAD_XREC_ROUNDTRIP
360
34D
  0
DICTIONARY
  5
354
330
39
100
AcDbDictionary
280
     1
281
     1
  3
ACAD_XREC_ROUNDTRIP
360
355
  0
DICTIONARY
  5
338
330
2B
100
AcDbDictionary
280
     1
281
     1
  3
ACAD_XREC_ROUNDTRIP
360
339
  0
DICTIONARY
  5
33A
330
2C
100
AcDbDictionary
280
     1
281
     1
  3
ACAD_XREC_ROUNDTRIP
360
33B
  0
DICTIONARY
  5
33C
330
2D
100
AcDbDictionary
280
     1
281
     1
  3
ACAD_XREC_ROUNDTRIP
360
33D
  0
DICTIONARY
  5
33E
330
2E
100
AcDbDictionary
280
     1
281
     1
  3
ACAD_XREC_ROUNDTRIP
360
33F
  0
DICTIONARY
  5
352
330
38
100
AcDbDictionary
280
     1
281
     1
  3
ACAD_XREC_ROUNDTRIP
360
353
  0
DICTIONARY
  5
348
330
33
100
AcDbDictionary
280
     1
281
     1
  3
ACAD_XREC_ROUNDTRIP
360
349
  0
DICTIONARY
  5
350
330
37
100
AcDbDictionary
280
     1
281
     1
  3
ACAD_XREC_ROUNDTRIP
360
351
  0
XRECORD
  5
35B
102
{ACAD_REACTORS
330
35A
102
}
330
35A
100
AcDbXrecord
280
     1
102
MATERIAL
148
0.0
149
0.0
149
0.0
 93
        0
 94
      127
282
     0
 72
     1
 77
     1
171
     1
175
     1
179
     1
273
     0
  0
XRECORD
  5
359
102
{ACAD_REACTORS
330
358
102
}
330
358
100
AcDbXrecord
280
     1
102
MATERIAL
148
0.0
149
0.0
149
0.0
 93
        0
 94
      127
282
     0
 72
     1
 77
     1
171
     1
175
     1
179
     1
273
     0
  0
XRECORD
  5
35D
102
{ACAD_REACTORS
330
35C
102
}
330
35C
100
AcDbXrecord
280
     1
102
MATERIAL
148
0.0
149
0.0
149
0.0
 93
        0
 94
      127
282
     0
 72
     1
 77
     1
171
     1
175
     1
179
     1
273
     0
  0
XRECORD
  5
341
102
{ACAD_REACTORS
330
340
102
}
330
340
100
AcDbXrecord
280
     1
102
RTVSPropertyOp0
 70
     1
102
RTVSPropertyOp1
 70
     1
102
RTVSPropertyOp2
 70
     1
102
RTVSPropertyOp3
 70
     1
102
RTVSPropertyOp4
 70
     1
102
RTVSPropertyOp5
 70
     1
102
RTVSPropertyOp6
 70
     1
102
RTVSPropertyOp7
 70
     1
102
RTVSPropertyOp8
 70
     1
102
RTVSPropertyOp9
 70
     1
102
RTVSPropertyOp10
 70
     1
102
RTVSPropertyOp11
 70
     1
102
RTVSPropertyOp12
 70
     1
102
RTVSPropertyOp13
 70
     1
102
RTVSPropertyOp14
 70
     1
102
RTVSPropertyOp15
 70
     1
102
RTVSPropertyOp16
 70
     1
102
RTVSPropertyOp17
 70
     1
102
RTVSPropertyOp18
 70
     1
102
RTVSPropertyOp19
 70
     1
102
RTVSPropertyOp20
 70
     1
102
RTVSPropertyOp21
 70
     1
102
RTVSPropertyOp22
 70
     1
102
RTVSPropertyOp23
 70
     1
102
RTVSPropertyOp24
 70
     1
102
RTVSPropertyOp25
 70
     1
102
RTVSPropertyOp26
 70
     1
102
RTVSPropertyOp27
 70
     1
102
RTVSPropertyOp28
 70
     1
102
RTVSPropertyOp29
 70
     1
102
RTVSPropertyOp30
 70
     1
102
RTVSPropertyOp31
 70
     1
102
RTVSPropertyOp32
 70
     1
  0
XRECORD
  5
345
102
{ACAD_REACTORS
330
344
102
}
330
344
100
AcDbXrecord
280
     1
102
RTVSPropertyOp0
 70
     1
102
RTVSPropertyOp1
 70
     1
102
RTVSPropertyOp2
 70
     1
102
RTVSPropertyOp3
 70
     1
102
RTVSPropertyOp4
 70
     1
102
RTVSPropertyOp5
 70
     1
102
RTVSPropertyOp6
 70
     1
102
RTVSPropertyOp7
 70
     1
102
RTVSPropertyOp8
 70
     1
102
RTVSPropertyOp9
 70
     1
102
RTVSPropertyOp10
 70
     1
102
RTVSPropertyOp11
 70
     1
102
RTVSPropertyOp12
 70
     1
102
RTVSPropertyOp13
 70
     1
102
RTVSPropertyOp14
 70
     1
102
RTVSPropertyOp15
 70
     1
102
RTVSPropertyOp16
 70
     1
102
RTVSPropertyOp17
 70
     1
102
RTVSPropertyOp18
 70
     1
102
RTVSPropertyOp19
 70
     1
102
RTVSPropertyOp20
 70
     1
102
RTVSPropertyOp21
 70
     1
102
RTVSPropertyOp22
 70
     1
102
RTVSPropertyOp23
 70
     1
102
RTVSPropertyOp24
 70
     1
102
RTVSPropertyOp25
 70
     1
102
RTVSPropertyOp26
 70
     1
102
RTVSPropertyOp27
 70
     1
102
RTVSPropertyOp28
 70
     1
102
RTVSPropertyOp29
 70
     1
102
RTVSPropertyOp30
 70
     1
102
RTVSPropertyOp31
 70
     1
102
RTVSPropertyOp32
 70
     1
  0
XRECORD
  5
343
102
{ACAD_REACTORS
330
342
102
}
330
342
100
AcDbXrecord
280
     1
102
RTVSPropertyOp0
 70
     1
102
RTVSPropertyOp1
 70
     1
102
RTVSPropertyOp2
 70
     1
102
RTVSPropertyOp3
 70
     1
102
RTVSPropertyOp4
 70
     1
102
RTVSPropertyOp5
 70
     1
102
RTVSPropertyOp6
 70
     1
102
RTVSPropertyOp7
 70
     1
102
RTVSPropertyOp8
 70
     1
102
RTVSPropertyOp9
 70
     1
102
RTVSPropertyOp10
 70
     1
102
RTVSPropertyOp11
 70
     1
102
RTVSPropertyOp12
 70
     1
102
RTVSPropertyOp13
 70
     1
102
RTVSPropertyOp14
 70
     1
102
RTVSPropertyOp15
 70
     1
102
RTVSPropertyOp16
 70
     1
102
RTVSPropertyOp17
 70
     1
102
RTVSPropertyOp18
 70
     1
102
RTVSPropertyOp19
 70
     1
102
RTVSPropertyOp20
 70
     1
102
RTVSPropertyOp21
 70
     1
102
RTVSPropertyOp22
 70
     1
102
RTVSPropertyOp23
 70
     1
102
RTVSPropertyOp24
 70
     1
102
RTVSPropertyOp25
 70
     1
102
RTVSPropertyOp26
 70
     1
102
RTVSPropertyOp27
 70
     1
102
RTVSPropertyOp28
 70
     1
102
RTVSPropertyOp29
 70
     1
102
RTVSPropertyOp30
 70
     1
102
RTVSPropertyOp31
 70
     1
102
RTVSPropertyOp32
 70
     1
  0
XRECORD
  5
347
102
{ACAD_REACTORS
330
346
102
}
330
346
100
AcDbXrecord
280
     1
102
RTVSPropertyOp0
 70
     1
102
RTVSPropertyOp1
 70
     1
102
RTVSPropertyOp2
 70
     1
102
RTVSPropertyOp3
 70
     1
102
RTVSPropertyOp4
 70
     1
102
RTVSPropertyOp5
 70
     1
102
RTVSPropertyOp6
 70
     1
102
RTVSPropertyOp7
 70
     1
102
RTVSPropertyOp8
 70
     1
102
RTVSPropertyOp9
 70
     1
102
RTVSPropertyOp10
 70
     1
102
RTVSPropertyOp11
 70
     1
102
RTVSPropertyOp12
 70
     1
102
RTVSPropertyOp13
 70
     1
102
RTVSPropertyOp14
 70
     1
102
RTVSPropertyOp15
 70
     1
102
RTVSPropertyOp16
 70
     1
102
RTVSPropertyOp17
 70
     1
102
RTVSPropertyOp18
 70
     1
102
RTVSPropertyOp19
 70
     1
102
RTVSPropertyOp20
 70
     1
102
RTVSPropertyOp21
 70
     1
102
RTVSPropertyOp22
 70
     1
102
RTVSPropertyOp23
 70
     1
102
RTVSPropertyOp24
 70
     1
102
RTVSPropertyOp25
 70
     1
102
RTVSPropertyOp26
 70
     1
102
RTVSPropertyOp27
 70
     1
102
RTVSPropertyOp28
 70
     1
102
RTVSPropertyOp29
 70
     1
102
RTVSPropertyOp30
 70
     1
102
RTVSPropertyOp31
 70
     1
102
RTVSPropertyOp32
 70
     1
  0
XRECORD
  5
34F
102
{ACAD_REACTORS
330
34E
102
}
330
34E
100
AcDbXrecord
280
     1
102
RTVSPropertyOp0
 70
     1
102
RTVSPropertyOp1
 70
     1
102
RTVSPropertyOp2
 70
     1
102
RTVSPropertyOp3
 70
     1
102
RTVSPropertyOp4
 70
     1
102
RTVSPropertyOp5
 70
     1
102
RTVSPropertyOp6
 70
     1
102
RTVSPropertyOp7
 70
     1
102
RTVSPropertyOp8
 70
     1
102
RTVSPropertyOp9
 70
     1
102
RTVSPropertyOp10
 70
     1
102
RTVSPropertyOp11
 70
     1
102
RTVSPropertyOp12
 70
     1
102
RTVSPropertyOp13
 70
     1
102
RTVSPropertyOp14
 70
     1
102
RTVSPropertyOp15
 70
     1
102
RTVSPropertyOp16
 70
     1
102
RTVSPropertyOp17
 70
     1
102
RTVSPropertyOp18
 70
     1
102
RTVSPropertyOp19
 70
     1
102
RTVSPropertyOp20
 70
     1
102
RTVSPropertyOp21
 70
     1
102
RTVSPropertyOp22
 70
     1
102
RTVSPropertyOp23
 70
     1
102
RTVSPropertyOp24
 70
     1
102
RTVSPropertyOp25
 70
     1
102
RTVSPropertyOp26
 70
     1
102
RTVSPropertyOp27
 70
     1
102
RTVSPropertyOp28
 70
     1
102
RTVSPropertyOp29
 70
     1
102
RTVSPropertyOp30
 70
     1
102
RTVSPropertyOp31
 70
     1
102
RTVSPropertyOp32
 70
     1
  0
XRECORD
  5
357
102
{ACAD_REACTORS
330
356
102
}
330
356
100
AcDbXrecord
280
     1
102
RTVSPropertyOp0
 70
     1
102
RTVSPropertyOp1
 70
     1
102
RTVSPropertyOp2
 70
     1
102
RTVSPropertyOp3
 70
     1
102
RTVSPropertyOp4
 70
     1
102
RTVSPropertyOp5
 70
     1
102
RTVSPropertyOp6
 70
     1
102
RTVSPropertyOp7
 70
     1
102
RTVSPropertyOp8
 70
     1
102
RTVSPropertyOp9
 70
     1
102
RTVSPropertyOp10
 70
     1
102
RTVSPropertyOp11
 70
     1
102
RTVSPropertyOp12
 70
     1
102
RTVSPropertyOp13
 70
     1
102
RTVSPropertyOp14
 70
     1
102
RTVSPropertyOp15
 70
     1
102
RTVSPropertyOp16
 70
     1
102
RTVSPropertyOp17
 70
     1
102
RTVSPropertyOp18
 70
     1
102
RTVSPropertyOp19
 70
     1
102
RTVSPropertyOp20
 70
     1
102
RTVSPropertyOp21
 70
     1
102
RTVSPropertyOp22
 70
     1
102
RTVSPropertyOp23
 70
     1
102
RTVSPropertyOp24
 70
     1
102
RTVSPropertyOp25
 70
     1
102
RTVSPropertyOp26
 70
     1
102
RTVSPropertyOp27
 70
     1
102
RTVSPropertyOp28
 70
     1
102
RTVSPropertyOp29
 70
     1
102
RTVSPropertyOp30
 70
     1
102
RTVSPropertyOp31
 70
     1
102
RTVSPropertyOp32
 70
     1
  0
XRECORD
  5
34B
102
{ACAD_REACTORS
330
34A
102
}
330
34A
100
AcDbXrecord
280
     1
102
RTVSPropertyOp0
 70
     1
102
RTVSPropertyOp1
 70
     1
102
RTVSPropertyOp2
 70
     1
102
RTVSPropertyOp3
 70
     1
102
RTVSPropertyOp4
 70
     1
102
RTVSPropertyOp5
 70
     1
102
RTVSPropertyOp6
 70
     1
102
RTVSPropertyOp7
 70
     1
102
RTVSPropertyOp8
 70
     1
102
RTVSPropertyOp9
 70
     1
102
RTVSPropertyOp10
 70
     1
102
RTVSPropertyOp11
 70
     1
102
RTVSPropertyOp12
 70
     1
102
RTVSPropertyOp13
 70
     1
102
RTVSPropertyOp14
 70
     1
102
RTVSPropertyOp15
 70
     1
102
RTVSPropertyOp16
 70
     1
102
RTVSPropertyOp17
 70
     1
102
RTVSPropertyOp18
 70
     1
102
RTVSPropertyOp19
 70
     1
102
RTVSPropertyOp20
 70
     1
102
RTVSPropertyOp21
 70
     1
102
RTVSPropertyOp22
 70
     1
102
RTVSPropertyOp23
 70
     1
102
RTVSPropertyOp24
 70
     1
102
RTVSPropertyOp25
 70
     1
102
RTVSPropertyOp26
 70
     1
102
RTVSPropertyOp27
 70
     1
102
RTVSPropertyOp28
 70
     1
102
RTVSPropertyOp29
 70
     1
102
RTVSPropertyOp30
 70
     1
102
RTVSPropertyOp31
 70
     1
102
RTVSPropertyOp32
 70
     1
  0
XRECORD
  5
34D
102
{ACAD_REACTORS
330
34C
102
}
330
34C
100
AcDbXrecord
280
     1
102
RTVSPropertyOp0
 70
     1
102
RTVSPropertyOp1
 70
     1
102
RTVSPropertyOp2
 70
     1
102
RTVSPropertyOp3
 70
     1
102
RTVSPropertyOp4
 70
     1
102
RTVSPropertyOp5
 70
     1
102
RTVSPropertyOp6
 70
     1
102
RTVSPropertyOp7
 70
     1
102
RTVSPropertyOp8
 70
     1
102
RTVSPropertyOp9
 70
     1
102
RTVSPropertyOp10
 70
     1
102
RTVSPropertyOp11
 70
     1
102
RTVSPropertyOp12
 70
     1
102
RTVSPropertyOp13
 70
     1
102
RTVSPropertyOp14
 70
     1
102
RTVSPropertyOp15
 70
     1
102
RTVSPropertyOp16
 70
     1
102
RTVSPropertyOp17
 70
     1
102
RTVSPropertyOp18
 70
     1
102
RTVSPropertyOp19
 70
     1
102
RTVSPropertyOp20
 70
     1
102
RTVSPropertyOp21
 70
     1
102
RTVSPropertyOp22
 70
     1
102
RTVSPropertyOp23
 70
     1
102
RTVSPropertyOp24
 70
     1
102
RTVSPropertyOp25
 70
     1
102
RTVSPropertyOp26
 70
     1
102
RTVSPropertyOp27
 70
     1
102
RTVSPropertyOp28
 70
     1
102
RTVSPropertyOp29
 70
     1
102
RTVSPropertyOp30
 70
     1
102
RTVSPropertyOp31
 70
     1
102
RTVSPropertyOp32
 70
     1
  0
XRECORD
  5
355
102
{ACAD_REACTORS
330
354
102
}
330
354
100
AcDbXrecord
280
     1
102
RTVSPropertyOp0
 70
     1
102
RTVSPropertyOp1
 70
     1
102
RTVSPropertyOp2
 70
     1
102
RTVSPropertyOp3
 70
     1
102
RTVSPropertyOp4
 70
     1
102
RTVSPropertyOp5
 70
     1
102
RTVSPropertyOp6
 70
     1
102
RTVSPropertyOp7
 70
     1
102
RTVSPropertyOp8
 70
     1
102
RTVSPropertyOp9
 70
     1
102
RTVSPropertyOp10
 70
     1
102
RTVSPropertyOp11
 70
     1
102
RTVSPropertyOp12
 70
     1
102
RTVSPropertyOp13
 70
     1
102
RTVSPropertyOp14
 70
     1
102
RTVSPropertyOp15
 70
     1
102
RTVSPropertyOp16
 70
     1
102
RTVSPropertyOp17
 70
     1
102
RTVSPropertyOp18
 70
     1
102
RTVSPropertyOp19
 70
     1
102
RTVSPropertyOp20
 70
     1
102
RTVSPropertyOp21
 70
     1
102
RTVSPropertyOp22
 70
     1
102
RTVSPropertyOp23
 70
     1
102
RTVSPropertyOp24
 70
     1
102
RTVSPropertyOp25
 70
     1
102
RTVSPropertyOp26
 70
     1
102
RTVSPropertyOp27
 70
     1
102
RTVSPropertyOp28
 70
     1
102
RTVSPropertyOp29
 70
     1
102
RTVSPropertyOp30
 70
     1
102
RTVSPropertyOp31
 70
     1
102
RTVSPropertyOp32
 70
     1
  0
XRECORD
  5
339
102
{ACAD_REACTORS
330
338
102
}
330
338
100
AcDbXrecord
280
     1
102
RTVSPropertyOp0
 70
     1
102
RTVSPropertyOp1
 70
     1
102
RTVSPropertyOp2
 70
     1
102
RTVSPropertyOp3
 70
     1
102
RTVSPropertyOp4
 70
     1
102
RTVSPropertyOp5
 70
     1
102
RTVSPropertyOp6
 70
     1
102
RTVSPropertyOp7
 70
     1
102
RTVSPropertyOp8
 70
     1
102
RTVSPropertyOp9
 70
     1
102
RTVSPropertyOp10
 70
     1
102
RTVSPropertyOp11
 70
     1
102
RTVSPropertyOp12
 70
     1
102
RTVSPropertyOp13
 70
     1
102
RTVSPropertyOp14
 70
     1
102
RTVSPropertyOp15
 70
     1
102
RTVSPropertyOp16
 70
     1
102
RTVSPropertyOp17
 70
     1
102
RTVSPropertyOp18
 70
     1
102
RTVSPropertyOp19
 70
     1
102
RTVSPropertyOp20
 70
     1
102
RTVSPropertyOp21
 70
     1
102
RTVSPropertyOp22
 70
     1
102
RTVSPropertyOp23
 70
     1
102
RTVSPropertyOp24
 70
     1
102
RTVSPropertyOp25
 70
     1
102
RTVSPropertyOp26
 70
     1
102
RTVSPropertyOp27
 70
     1
102
RTVSPropertyOp28
 70
     1
102
RTVSPropertyOp29
 70
     1
102
RTVSPropertyOp30
 70
     1
102
RTVSPropertyOp31
 70
     1
102
RTVSPropertyOp32
 70
     1
  0
XRECORD
  5
33B
102
{ACAD_REACTORS
330
33A
102
}
330
33A
100
AcDbXrecord
280
     1
102
RTVSPropertyOp0
 70
     1
102
RTVSPropertyOp1
 70
     1
102
RTVSPropertyOp2
 70
     1
102
RTVSPropertyOp3
 70
     1
102
RTVSPropertyOp4
 70
     1
102
RTVSPropertyOp5
 70
     1
102
RTVSPropertyOp6
 70
     1
102
RTVSPropertyOp7
 70
     1
102
RTVSPropertyOp8
 70
     1
102
RTVSPropertyOp9
 70
     1
102
RTVSPropertyOp10
 70
     1
102
RTVSPropertyOp11
 70
     1
102
RTVSPropertyOp12
 70
     1
102
RTVSPropertyOp13
 70
     1
102
RTVSPropertyOp14
 70
     1
102
RTVSPropertyOp15
 70
     1
102
RTVSPropertyOp16
 70
     1
102
RTVSPropertyOp17
 70
     1
102
RTVSPropertyOp18
 70
     1
102
RTVSPropertyOp19
 70
     1
102
RTVSPropertyOp20
 70
     1
102
RTVSPropertyOp21
 70
     1
102
RTVSPropertyOp22
 70
     1
102
RTVSPropertyOp23
 70
     1
102
RTVSPropertyOp24
 70
     1
102
RTVSPropertyOp25
 70
     1
102
RTVSPropertyOp26
 70
     1
102
RTVSPropertyOp27
 70
     1
102
RTVSPropertyOp28
 70
     1
102
RTVSPropertyOp29
 70
     1
102
RTVSPropertyOp30
 70
     1
102
RTVSPropertyOp31
 70
     1
102
RTVSPropertyOp32
 70
     1
  0
XRECORD
  5
33D
102
{ACAD_REACTORS
330
33C
102
}
330
33C
100
AcDbXrecord
280
     1
102
RTVSPropertyOp0
 70
     1
102
RTVSPropertyOp1
 70
     1
102
RTVSPropertyOp2
 70
     1
102
RTVSPropertyOp3
 70
     1
102
RTVSPropertyOp4
 70
     1
102
RTVSPropertyOp5
 70
     1
102
RTVSPropertyOp6
 70
     1
102
RTVSPropertyOp7
 70
     1
102
RTVSPropertyOp8
 70
     1
102
RTVSPropertyOp9
 70
     1
102
RTVSPropertyOp10
 70
     1
102
RTVSPropertyOp11
 70
     1
102
RTVSPropertyOp12
 70
     1
102
RTVSPropertyOp13
 70
     1
102
RTVSPropertyOp14
 70
     1
102
RTVSPropertyOp15
 70
     1
102
RTVSPropertyOp16
 70
     1
102
RTVSPropertyOp17
 70
     1
102
RTVSPropertyOp18
 70
     1
102
RTVSPropertyOp19
 70
     1
102
RTVSPropertyOp20
 70
     1
102
RTVSPropertyOp21
 70
     1
102
RTVSPropertyOp22
 70
     1
102
RTVSPropertyOp23
 70
     1
102
RTVSPropertyOp24
 70
     1
102
RTVSPropertyOp25
 70
     1
102
RTVSPropertyOp26
 70
     1
102
RTVSPropertyOp27
 70
     1
102
RTVSPropertyOp28
 70
     1
102
RTVSPropertyOp29
 70
     1
102
RTVSPropertyOp30
 70
     1
102
RTVSPropertyOp31
 70
     1
102
RTVSPropertyOp32
 70
     1
  0
XRECORD
  5
33F
102
{ACAD_REACTORS
330
33E
102
}
330
33E
100
AcDbXrecord
280
     1
102
RTVSPropertyOp0
 70
     1
102
RTVSPropertyOp1
 70
     1
102
RTVSPropertyOp2
 70
     1
102
RTVSPropertyOp3
 70
     1
102
RTVSPropertyOp4
 70
     1
102
RTVSPropertyOp5
 70
     1
102
RTVSPropertyOp6
 70
     1
102
RTVSPropertyOp7
 70
     1
102
RTVSPropertyOp8
 70
     1
102
RTVSPropertyOp9
 70
     1
102
RTVSPropertyOp10
 70
     1
102
RTVSPropertyOp11
 70
     1
102
RTVSPropertyOp12
 70
     1
102
RTVSPropertyOp13
 70
     1
102
RTVSPropertyOp14
 70
     1
102
RTVSPropertyOp15
 70
     1
102
RTVSPropertyOp16
 70
     1
102
RTVSPropertyOp17
 70
     1
102
RTVSPropertyOp18
 70
     1
102
RTVSPropertyOp19
 70
     1
102
RTVSPropertyOp20
 70
     1
102
RTVSPropertyOp21
 70
     1
102
RTVSPropertyOp22
 70
     1
102
RTVSPropertyOp23
 70
     1
102
RTVSPropertyOp24
 70
     1
102
RTVSPropertyOp25
 70
     1
102
RTVSPropertyOp26
 70
     1
102
RTVSPropertyOp27
 70
     1
102
RTVSPropertyOp28
 70
     1
102
RTVSPropertyOp29
 70
     1
102
RTVSPropertyOp30
 70
     1
102
RTVSPropertyOp31
 70
     1
102
RTVSPropertyOp32
 70
     1
  0
XRECORD
  5
353
102
{ACAD_REACTORS
330
352
102
}
330
352
100
AcDbXrecord
280
     1
102
RTVSPropertyOp0
 70
     1
102
RTVSPropertyOp1
 70
     1
102
RTVSPropertyOp2
 70
     1
102
RTVSPropertyOp3
 70
     1
102
RTVSPropertyOp4
 70
     1
102
RTVSPropertyOp5
 70
     1
102
RTVSPropertyOp6
 70
     1
102
RTVSPropertyOp7
 70
     1
102
RTVSPropertyOp8
 70
     1
102
RTVSPropertyOp9
 70
     1
102
RTVSPropertyOp10
 70
     1
102
RTVSPropertyOp11
 70
     1
102
RTVSPropertyOp12
 70
     1
102
RTVSPropertyOp13
 70
     1
102
RTVSPropertyOp14
 70
     1
102
RTVSPropertyOp15
 70
     1
102
RTVSPropertyOp16
 70
     1
102
RTVSPropertyOp17
 70
     1
102
RTVSPropertyOp18
 70
     1
102
RTVSPropertyOp19
 70
     1
102
RTVSPropertyOp20
 70
     1
102
RTVSPropertyOp21
 70
     1
102
RTVSPropertyOp22
 70
     1
102
RTVSPropertyOp23
 70
     1
102
RTVSPropertyOp24
 70
     1
102
RTVSPropertyOp25
 70
     1
102
RTVSPropertyOp26
 70
     1
102
RTVSPropertyOp27
 70
     1
102
RTVSPropertyOp28
 70
     1
102
RTVSPropertyOp29
 70
     1
102
RTVSPropertyOp30
 70
     1
102
RTVSPropertyOp31
 70
     1
102
RTVSPropertyOp32
 70
     1
  0
XRECORD
  5
349
102
{ACAD_REACTORS
330
348
102
}
330
348
100
AcDbXrecord
280
     1
102
RTVSPropertyOp0
 70
     1
102
RTVSPropertyOp1
 70
     1
102
RTVSPropertyOp2
 70
     1
102
RTVSPropertyOp3
 70
     1
102
RTVSPropertyOp4
 70
     1
102
RTVSPropertyOp5
 70
     1
102
RTVSPropertyOp6
 70
     1
102
RTVSPropertyOp7
 70
     1
102
RTVSPropertyOp8
 70
     1
102
RTVSPropertyOp9
 70
     1
102
RTVSPropertyOp10
 70
     1
102
RTVSPropertyOp11
 70
     1
102
RTVSPropertyOp12
 70
     1
102
RTVSPropertyOp13
 70
     1
102
RTVSPropertyOp14
 70
     1
102
RTVSPropertyOp15
 70
     1
102
RTVSPropertyOp16
 70
     1
102
RTVSPropertyOp17
 70
     1
102
RTVSPropertyOp18
 70
     1
102
RTVSPropertyOp19
 70
     1
102
RTVSPropertyOp20
 70
     1
102
RTVSPropertyOp21
 70
     1
102
RTVSPropertyOp22
 70
     1
102
RTVSPropertyOp23
 70
     1
102
RTVSPropertyOp24
 70
     1
102
RTVSPropertyOp25
 70
     1
102
RTVSPropertyOp26
 70
     1
102
RTVSPropertyOp27
 70
     1
102
RTVSPropertyOp28
 70
     1
102
RTVSPropertyOp29
 70
     1
102
RTVSPropertyOp30
 70
     1
102
RTVSPropertyOp31
 70
     1
102
RTVSPropertyOp32
 70
     1
  0
XRECORD
  5
351
102
{ACAD_REACTORS
330
350
102
}
330
350
100
AcDbXrecord
280
     1
102
RTVSPropertyOp0
 70
     1
102
RTVSPropertyOp1
 70
     1
102
RTVSPropertyOp2
 70
     1
102
RTVSPropertyOp3
 70
     1
102
RTVSPropertyOp4
 70
     1
102
RTVSPropertyOp5
 70
     1
102
RTVSPropertyOp6
 70
     1
102
RTVSPropertyOp7
 70
     1
102
RTVSPropertyOp8
 70
     1
102
RTVSPropertyOp9
 70
     1
102
RTVSPropertyOp10
 70
     1
102
RTVSPropertyOp11
 70
     1
102
RTVSPropertyOp12
 70
     1
102
RTVSPropertyOp13
 70
     1
102
RTVSPropertyOp14
 70
     1
102
RTVSPropertyOp15
 70
     1
102
RTVSPropertyOp16
 70
     1
102
RTVSPropertyOp17
 70
     1
102
RTVSPropertyOp18
 70
     1
102
RTVSPropertyOp19
 70
     1
102
RTVSPropertyOp20
 70
     1
102
RTVSPropertyOp21
 70
     1
102
RTVSPropertyOp22
 70
     1
102
RTVSPropertyOp23
 70
     1
102
RTVSPropertyOp24
 70
     1
102
RTVSPropertyOp25
 70
     1
102
RTVSPropertyOp26
 70
     1
102
RTVSPropertyOp27
 70
     1
102
RTVSPropertyOp28
 70
     1
102
RTVSPropertyOp29
 70
     1
102
RTVSPropertyOp30
 70
     1
102
RTVSPropertyOp31
 70
     1
102
RTVSPropertyOp32
 70
     1
  0
ENDSEC
  0
EOF
